1 (edited by Rootifera 2020-05-16 16:12:44)

Max Pack

Match: http://redump.org/disc/1981/
Logs: https://drive.google.com/open?id=1pK1p_ … nB08X3cj0a

Common Disc Info:
    Title: Carmageddon: Splat Pack
    Foreign Title (Non-latin): 
    Disc Number / Letter: (OPTIONAL)
    Disc Title: (OPTIONAL)
    System: IBM PC Compatible
    Media Type: CD-ROM
    Category: Add-Ons
    Matching IDs: 1981
    Region: Europe
    Languages: English
    Disc Serial: SCI142G002-0001-0014-01

    Ringcode Information:
        Mastering Code (laser branded/etched): MASTERED BY DOCDATA    SPLATPACK    THE PRODUCERS LTD ·
        Mastering SID Code: IFPI LA31
        Data-Side Mould SID Code: (REQUIRED, IF EXISTS)
        Label-Side Mould SID Code: (REQUIRED, IF EXISTS)
        Additional Mould: (REQUIRED, IF EXISTS)
        Toolstamp or Mastering Code (engraved/stamped): (REQUIRED, IF EXISTS)
    Barcode: 
    Error Count: 0
    Comments: Max Pack: Bundled with <a href=/disc/66532/>Carmageddon</a>.
    Contents: (OPTIONAL)

Version and Editions:
    Version: (REQUIRED, IF EXISTS)
    Edition/Release: Max Pack

Extras:
    Primary Volume Descriptor (PVD):

0320 : 20 20 20 20 20 20 20 20  20 20 20 20 20 31 39 39                199
0330 : 37 31 30 32 30 31 35 32  34 30 34 30 30 00 31 39   7102015240400.19
0340 : 39 37 31 30 32 30 31 35  32 34 30 34 30 30 00 32   97102015240400.2
0350 : 30 30 37 31 30 31 38 31  35 32 34 30 34 30 30 00   007101815240400.
0360 : 31 39 39 37 31 30 32 30  31 35 32 34 30 34 30 30   1997102015240400
0370 : 00 01 00 00 00 00 00 00  00 00 00 00 00 00 00 00   ................

Copy Protection:
    Copy Protection: 

Tracks and Write Offsets:
    DAT:

<rom name="Splat Pack (Track 1).bin" size="381228624" crc="e540efed" md5="e308ed724e898940101ddebefd1f57f4" sha1="0fb2731b6d41bf35d9219a3be8637d1f112a5c64" />
<rom name="Splat Pack (Track 2).bin" size="48970992" crc="fd887d00" md5="06a6ee40f375f801ae07e201eb474bc3" sha1="c4b87292b22a711a0287afd919a3072ccffad7ca" />
<rom name="Splat Pack (Track 3).bin" size="37822512" crc="5538c2af" md5="c390f7a831918e9f7b084bf9ef110eea" sha1="7183457c6a7feea6676078450ff857aca544ec28" />
<rom name="Splat Pack (Track 4).bin" size="64019088" crc="91d51a25" md5="474ecfbce1bedd9d20cbd6f02d42dae8" sha1="217d1e8f18a1f96d715664b3d11f7ad2aba2dab4" />
<rom name="Splat Pack (Track 5).bin" size="1063104" crc="e760a5a9" md5="cf8e1469d90870e3b5b39eb84334550c" sha1="acc45eefd887464d6c9d16a7982324bc4a0029f7" />
<rom name="Splat Pack (Track 6).bin" size="1063104" crc="e760a5a9" md5="cf8e1469d90870e3b5b39eb84334550c" sha1="acc45eefd887464d6c9d16a7982324bc4a0029f7" />
<rom name="Splat Pack (Track 7).bin" size="1063104" crc="e760a5a9" md5="cf8e1469d90870e3b5b39eb84334550c" sha1="acc45eefd887464d6c9d16a7982324bc4a0029f7" />
<rom name="Splat Pack (Track 8).bin" size="710304" crc="d95afaf1" md5="5a07c24510c93e0b7e2f26fa61cc7809" sha1="2e6016d92f41b2419f8b48cde3a8ba53d4b7ef9d" />

    Cuesheet:

CATALOG 0000000000000
FILE "Splat Pack (Track 1).bin" BINARY
  TRACK 01 MODE1/2352
    INDEX 01 00:00:00
FILE "Splat Pack (Track 2).bin" BINARY
  TRACK 02 AUDIO
    INDEX 00 00:00:00
    INDEX 01 00:02:00
FILE "Splat Pack (Track 3).bin" BINARY
  TRACK 03 AUDIO
    INDEX 01 00:00:00
FILE "Splat Pack (Track 4).bin" BINARY
  TRACK 04 AUDIO
    INDEX 01 00:00:00
FILE "Splat Pack (Track 5).bin" BINARY
  TRACK 05 AUDIO
    INDEX 01 00:00:00
FILE "Splat Pack (Track 6).bin" BINARY
  TRACK 06 AUDIO
    INDEX 01 00:00:00
FILE "Splat Pack (Track 7).bin" BINARY
  TRACK 07 AUDIO
    INDEX 01 00:00:00
FILE "Splat Pack (Track 8).bin" BINARY
  TRACK 08 AUDIO
    INDEX 01 00:00:00

    Write Offset: 0