Max Pack Version

Match: http://redump.org/disc/66532/
Logs: https://drive.google.com/open?id=1TQLtC … RqXhqZoesN

Common Disc Info:
    Title: Carmageddon
    Foreign Title (Non-latin): 
    Disc Number / Letter: (OPTIONAL)
    Disc Title: (OPTIONAL)
    System: IBM PC Compatible
    Media Type: CD-ROM
    Category: Games
    Matching IDs: 66532
    Region: Europe
    Languages: English
    Disc Serial: SCI142P001-0001-0001-01

    Ringcode Information:
        Mastering Code (laser branded/etched): MASTERED BY DOCDATA    SCI142P001    THE PRODUCERS ·
        Mastering SID Code: IFPI LA31
        Data-Side Mould SID Code: (REQUIRED, IF EXISTS)
        Label-Side Mould SID Code: (REQUIRED, IF EXISTS)
        Additional Mould: (REQUIRED, IF EXISTS)
        Toolstamp or Mastering Code (engraved/stamped): (REQUIRED, IF EXISTS)
    Barcode: 
    Error Count: 1
    Comments: [T:ISBN] (OPTIONAL)
    Contents: (OPTIONAL)

Version and Editions:
    Version: (REQUIRED, IF EXISTS)
    Edition/Release: Max Pack

Extras:
    Primary Volume Descriptor (PVD):

0320 : 20 20 20 20 20 20 20 20  20 20 20 20 20 31 39 39                199
0330 : 38 30 31 31 34 30 39 32  36 30 39 30 30 00 31 39   8011409260900.19
0340 : 39 38 30 31 31 34 30 39  32 36 30 39 30 30 00 32   98011409260900.2
0350 : 30 30 38 30 31 31 32 30  39 32 36 30 39 30 30 00   008011209260900.
0360 : 31 39 39 38 30 31 31 34  30 39 32 36 30 39 30 30   1998011409260900
0370 : 00 01 00 00 00 00 00 00  00 00 00 00 00 00 00 00   ................

Copy Protection:
    Copy Protection: 

Tracks and Write Offsets:
    DAT:

<rom name="Max-Pack (Track 1).bin" size="359717232" crc="30c0abac" md5="3a32843c81e65c1a04249de91255149a" sha1="973b12b9862e86c0fc4732c90c6bb2539984502c" />
<rom name="Max-Pack (Track 2).bin" size="44960832" crc="8ce3c389" md5="e1ea65127a70464667160d6da32ca3dc" sha1="07b910e428d395a8fd3d58387a9fc9c01abb8062" />
<rom name="Max-Pack (Track 3).bin" size="60088896" crc="a6e0abf7" md5="9a1fc42d4e498a0f985dc107fe79e8e2" sha1="0329d45359812b644490c8c6d6e4d3b186f56e16" />
<rom name="Max-Pack (Track 4).bin" size="61039104" crc="31f782b2" md5="f70738a5780914aae70fe3f10bf1ceef" sha1="c083a59b86f8a208217b095c92cf79048db84f5f" />
<rom name="Max-Pack (Track 5).bin" size="58978752" crc="ba340504" md5="ca6d82740c74181a8c98287907598ccb" sha1="175a9c25bb33247288b5de0f5fc64c6b2edcff33" />
<rom name="Max-Pack (Track 6).bin" size="60324096" crc="f5cbd73c" md5="5dde5ae39969bc55c381a29eff69fe25" sha1="fd681e96473e6ad8f0c75cceb9a1b7739d65eec2" />
<rom name="Max-Pack (Track 7).bin" size="60293520" crc="d0cc2d5a" md5="939567bf0f9c252696a9f9ae30d2a835" sha1="f99544c9b11406b7d272049c9c8eccf3d3a67ef7" />
<rom name="Max-Pack (Track 8).bin" size="54265344" crc="92476ac0" md5="99dbbe3e2b360736b856617bd239f6e6" sha1="bf48cdcfa6f085977ee3762a30b2b7a933b738a6" />
<rom name="Max-Pack (Track 9).bin" size="1060752" crc="ff3d7b87" md5="b69a00966ab682bdc93fe742d2f163dc" sha1="fe59ace1f06f64fcb6834e64a9c7835342b06909" />

    Cuesheet:

FILE "Max-Pack (Track 1).bin" BINARY
  TRACK 01 MODE1/2352
    INDEX 01 00:00:00
FILE "Max-Pack (Track 2).bin" BINARY
  TRACK 02 AUDIO
    INDEX 00 00:00:00
    INDEX 01 00:01:74
FILE "Max-Pack (Track 3).bin" BINARY
  TRACK 03 AUDIO
    INDEX 00 00:00:00
    INDEX 01 00:01:74
FILE "Max-Pack (Track 4).bin" BINARY
  TRACK 04 AUDIO
    INDEX 00 00:00:00
    INDEX 01 00:01:74
FILE "Max-Pack (Track 5).bin" BINARY
  TRACK 05 AUDIO
    INDEX 00 00:00:00
    INDEX 01 00:01:74
FILE "Max-Pack (Track 6).bin" BINARY
  TRACK 06 AUDIO
    INDEX 00 00:00:00
    INDEX 01 00:01:74
FILE "Max-Pack (Track 7).bin" BINARY
  TRACK 07 AUDIO
    INDEX 00 00:00:00
    INDEX 01 00:01:74
FILE "Max-Pack (Track 8).bin" BINARY
  TRACK 08 AUDIO
    INDEX 00 00:00:00
    INDEX 01 00:01:74
FILE "Max-Pack (Track 9).bin" BINARY
  TRACK 09 AUDIO
    INDEX 00 00:00:00
    INDEX 01 00:01:74

    Write Offset: 0