I'm unsure on that one.

First track hash matches with /disc/11195/ but rest of them are different. Serial is a match. Ring code and Write offset are different.

https://gyazo.com/ccd5b1c5c1bf7b3cfcda335b8670dbb4
https://gyazo.com/bb97ecc3b1cda07b26944414e55a7758
https://gyazo.com/87c874ad8b748af1755960af7ef70511
https://gyazo.com/26729a91ae76c69669a109960dfe3fcf

Potential Match: http://redump.org/disc/11195/
Logs: https://drive.google.com/open?id=1htogq … gVBI8jvU45

Common Disc Info:
    Title: The Secret of Monkey Island
    Foreign Title (Non-latin): (OPTIONAL)
    Disc Number / Letter: (OPTIONAL)
    Disc Title: (OPTIONAL)
    System: IBM PC Compatible
    Media Type: CD-ROM
    Category: Games
    Region: World
    Languages: English, French, German, Italian, Spanish
    Disc Serial: 2147010-590001 / I 042

    Ringcode Information:
        Mastering Code (laser branded/etched): 12133325 (214198 R0B)*
        Mastering SID Code: (REQUIRED, IF EXISTS)
        Data-Side Mould SID Code: (REQUIRED, IF EXISTS)
        Label-Side Mould SID Code: (REQUIRED, IF EXISTS)
        Additional Mould: (REQUIRED, IF EXISTS)
        Toolstamp or Mastering Code (engraved/stamped): (REQUIRED, IF EXISTS)
    Barcode: (OPTIONAL)
    Error Count: 0
    Comments: [T:ISBN] (OPTIONAL)
    Contents: (OPTIONAL)

Version and Editions:
    Version: (REQUIRED, IF EXISTS)
    Edition/Release: Original 

Extras:
    Primary Volume Descriptor (PVD):

0320 : 20 20 20 20 20 20 20 20  20 20 20 20 20 31 39 39                199
0330 : 32 30 36 31 31 30 30 34  38 34 32 30 30 00 31 39   2061100484200.19
0340 : 39 32 30 36 31 31 30 30  34 38 34 32 30 30 00 30   92061100484200.0
0350 : 30 30 30 30 30 30 30 30  30 30 30 30 30 30 30 00   000000000000000.
0360 : 31 39 39 32 30 36 31 31  30 30 34 38 34 32 30 30   1992061100484200
0370 : 00 01 00 00 00 00 00 00  00 00 00 00 00 00 00 00   ................

Copy Protection:
    Copy Protection: None found

Tracks and Write Offsets:
    DAT:

<rom name="Monkey1 (Track 01).bin" size="52172064" crc="26ef1021" md5="bd3d6a86374ba9340591ee5492749643" sha1="44113741bfd826fa473413e25f28a57c01840f66" />
<rom name="Monkey1 (Track 02).bin" size="21927696" crc="ff6e9688" md5="1c568a8fbe5a3212bc2450f4dc49884e" sha1="5b3d280d592ceebd244e7af8ef7df052e1af83f8" />
<rom name="Monkey1 (Track 03).bin" size="22614480" crc="6540a7b0" md5="c820f2606b3a404df3920100ac04fc89" sha1="b15c671d39fbc89920ce4c02b1344cfd3a3acf38" />
<rom name="Monkey1 (Track 04).bin" size="22461600" crc="14274ba3" md5="fd1f4e98a6a3c424d704b2bb0daeef6e" sha1="93e37c32326410e01c64a53d7d45a667723e1a79" />
<rom name="Monkey1 (Track 05).bin" size="21332640" crc="487584ff" md5="ebefb8fdcdfe26685665ab208cfc86e3" sha1="996cb2e945444d9cbc2674988c7f8f327d1de711" />
<rom name="Monkey1 (Track 06).bin" size="22943760" crc="63a88c60" md5="70037812889eaaf4557f1e07741194fd" sha1="a6d48f20ee23a5ce5c35567550a6ce6a1a828cb0" />
<rom name="Monkey1 (Track 07).bin" size="2610720" crc="5827c80c" md5="b6834f0e83cf5d71e8aae8dda1a7fef6" sha1="49ee1918d1bb358b02effe7ab9d257aef59780bc" />
<rom name="Monkey1 (Track 08).bin" size="12888960" crc="37ddf83d" md5="6177323ba66c0c694468d361a48f06cd" sha1="b2a73c713d44e7f0d9ef6411ee71e920c0e6561f" />
<rom name="Monkey1 (Track 09).bin" size="25107600" crc="630a821f" md5="0005266e425a919f68ee0de5ff462938" sha1="04f99f73434f63bab74a421d1a0b398fa49a6c7b" />
<rom name="Monkey1 (Track 10).bin" size="22273440" crc="de548027" md5="c098fac1c8fd310252cf871ba48cf1fa" sha1="e510fd32da081b0a5122f0ba988873c1a4fa14e8" />
<rom name="Monkey1 (Track 11).bin" size="16981440" crc="194898b4" md5="d04fefc5d0a64045aac2cb08644c6b3a" sha1="150f156bc480c2ec23275db49379a655eecea3be" />
<rom name="Monkey1 (Track 12).bin" size="24660720" crc="674c351f" md5="515ca9f07fb6736d8310c814c573ca2b" sha1="8005b5a18087ab6f8a59bd1ffc757b4304613302" />
<rom name="Monkey1 (Track 13).bin" size="22296960" crc="c2f0c834" md5="504029fb1d646e21eb229bc355632ad8" sha1="eac611e90b46e60fc8d9e13b16a51fc2dec095fd" />
<rom name="Monkey1 (Track 14).bin" size="3751440" crc="b666dc54" md5="282fd00bc0146c8e5fcd48cd75ccbdd6" sha1="9ad7696ff798a5c66372d285a10fd1b8e24d4b8c" />
<rom name="Monkey1 (Track 15).bin" size="28106400" crc="1b9e1030" md5="b6c66dc8d76f8f101f3195713ffb82ec" sha1="28dc171db2194fbb9136ca841e20485dbd9f64d2" />
<rom name="Monkey1 (Track 16).bin" size="26777520" crc="4c00488c" md5="171833acb62393fed8c8fc0c1f0c737c" sha1="adc6975bfcf471439b3d1844dd4d73bce934bc03" />
<rom name="Monkey1 (Track 17).bin" size="39513600" crc="75d2d94f" md5="747a1cfa3d377cb7a4e517d932b9c9d7" sha1="b48aa1ef974e68461760ddef0264ea1e1b053d45" />
<rom name="Monkey1 (Track 18).bin" size="28306320" crc="41ab91bd" md5="fca3f32b4966f2fa6c76c8aadffedcc0" sha1="320aa5ca460300b6ebfe374f6e90222a8eb258e4" />
<rom name="Monkey1 (Track 19).bin" size="28506240" crc="5a2daeaa" md5="71222a3ae4e71202fea2ce90e8409e0c" sha1="5b412f6590e73def5079dfbe0bc4cfb6a1e40272" />
<rom name="Monkey1 (Track 20).bin" size="3304560" crc="859ab074" md5="41d7b74632f92c140770df689a7e5e20" sha1="2e5d2c0720f8694635a118fbbddc99a71bd29d13" />
<rom name="Monkey1 (Track 21).bin" size="3386880" crc="6c99759c" md5="12a6d428ea67abe2c47ceceebeb7ca5d" sha1="deb95603939cbfadfe6e87f329023d4233a0259a" />
<rom name="Monkey1 (Track 22).bin" size="23790480" crc="b87a2a3a" md5="785583b3011c50eea385a899fa5b2075" sha1="5c2acfd51f14746c78e8106c08d93e45625596ed" />
<rom name="Monkey1 (Track 23).bin" size="26166000" crc="71d47b62" md5="09f45cce0d2dfafc578c64e32412984a" sha1="de181a7794465e853f1c1699af32684273f78e66" />
<rom name="Monkey1 (Track 24).bin" size="24319680" crc="017728d7" md5="42c959f0442ae53fd90b144587dd724b" sha1="5828c3ca2a4bc1e3a246bd9998563bc86e177d08" />
<rom name="Monkey1 (Track 25).bin" size="27694800" crc="7e4118e6" md5="7114770767272ce6777850ff84e11426" sha1="087c6c06c15989a03c06d919a3bc68dd2bb6f83b" />

    Cuesheet:

FILE "Monkey1 (Track 01).bin" BINARY
  TRACK 01 MODE1/2352
    INDEX 01 00:00:00
FILE "Monkey1 (Track 02).bin" BINARY
  TRACK 02 AUDIO
    INDEX 00 00:00:00
    INDEX 01 00:04:18
FILE "Monkey1 (Track 03).bin" BINARY
  TRACK 03 AUDIO
    INDEX 00 00:00:00
    INDEX 01 00:02:30
FILE "Monkey1 (Track 04).bin" BINARY
  TRACK 04 AUDIO
    INDEX 00 00:00:00
    INDEX 01 00:02:55
FILE "Monkey1 (Track 05).bin" BINARY
  TRACK 05 AUDIO
    INDEX 00 00:00:00
    INDEX 01 00:03:60
FILE "Monkey1 (Track 06).bin" BINARY
  TRACK 06 AUDIO
    INDEX 00 00:00:00
    INDEX 01 00:01:35
FILE "Monkey1 (Track 07).bin" BINARY
  TRACK 07 AUDIO
    INDEX 00 00:00:00
    INDEX 01 00:01:15
FILE "Monkey1 (Track 08).bin" BINARY
  TRACK 08 AUDIO
    INDEX 00 00:00:00
    INDEX 01 00:01:45
FILE "Monkey1 (Track 09).bin" BINARY
  TRACK 09 AUDIO
    INDEX 00 00:00:00
    INDEX 01 00:02:25
FILE "Monkey1 (Track 10).bin" BINARY
  TRACK 10 AUDIO
    INDEX 00 00:00:00
    INDEX 01 00:01:55
FILE "Monkey1 (Track 11).bin" BINARY
  TRACK 11 AUDIO
    INDEX 00 00:00:00
    INDEX 01 00:01:70
FILE "Monkey1 (Track 12).bin" BINARY
  TRACK 12 AUDIO
    INDEX 00 00:00:00
    INDEX 01 00:00:50
FILE "Monkey1 (Track 13).bin" BINARY
  TRACK 13 AUDIO
    INDEX 00 00:00:00
    INDEX 01 00:02:40
FILE "Monkey1 (Track 14).bin" BINARY
  TRACK 14 AUDIO
    INDEX 00 00:00:00
    INDEX 01 00:01:55
FILE "Monkey1 (Track 15).bin" BINARY
  TRACK 15 AUDIO
    INDEX 00 00:00:00
    INDEX 01 00:01:15
FILE "Monkey1 (Track 16).bin" BINARY
  TRACK 16 AUDIO
    INDEX 00 00:00:00
    INDEX 01 00:02:10
FILE "Monkey1 (Track 17).bin" BINARY
  TRACK 17 AUDIO
    INDEX 00 00:00:00
    INDEX 01 00:02:55
FILE "Monkey1 (Track 18).bin" BINARY
  TRACK 18 AUDIO
    INDEX 00 00:00:00
    INDEX 01 00:01:05
FILE "Monkey1 (Track 19).bin" BINARY
  TRACK 19 AUDIO
    INDEX 00 00:00:00
    INDEX 01 00:03:20
FILE "Monkey1 (Track 20).bin" BINARY
  TRACK 20 AUDIO
    INDEX 00 00:00:00
    INDEX 01 00:00:10
FILE "Monkey1 (Track 21).bin" BINARY
  TRACK 21 AUDIO
    INDEX 00 00:00:00
    INDEX 01 00:01:20
FILE "Monkey1 (Track 22).bin" BINARY
  TRACK 22 AUDIO
    INDEX 00 00:00:00
    INDEX 01 00:00:15
FILE "Monkey1 (Track 23).bin" BINARY
  TRACK 23 AUDIO
    INDEX 00 00:00:00
    INDEX 01 00:03:15
FILE "Monkey1 (Track 24).bin" BINARY
  TRACK 24 AUDIO
    INDEX 00 00:00:00
    INDEX 01 00:02:10
FILE "Monkey1 (Track 25).bin" BINARY
  TRACK 25 AUDIO
    INDEX 00 00:00:00
    INDEX 01 00:02:20

    Write Offset: 1234