Match: http://redump.org/disc/37788/
Logs: https://drive.google.com/open?id=1pysRp … BP7EVFD4Up

Common Disc Info:
    Title: Gangsters: Organized Crime
    Foreign Title (Non-latin): 
    Disc Number / Letter: (OPTIONAL)
    Disc Title: (OPTIONAL)
    System: IBM PC Compatible
    Media Type: CD-ROM
    Category: Games
    Matching IDs: 37788
    Region: Europe
    Languages: English
    Disc Serial: (REQUIRED, IF EXISTS)

    Ringcode Information:
        Mastering Code (laser branded/etched): DISCTRONICS    S MGANGPEN 01 01
        Mastering SID Code: IFPI L501
        Data-Side Mould SID Code: IFPI 8707
        Label-Side Mould SID Code: (REQUIRED, IF EXISTS)
        Additional Mould: (REQUIRED, IF EXISTS)
        Toolstamp or Mastering Code (engraved/stamped): (REQUIRED, IF EXISTS)
    Barcode: 5 032921 004411
    Error Count: 0
    Comments: [T:ISBN] (OPTIONAL)
    Contents: (OPTIONAL)

Version and Editions:
    Version: (REQUIRED, IF EXISTS)
    Edition/Release: Original

Extras:
    Primary Volume Descriptor (PVD):

0320 : 20 20 20 20 20 20 20 20  20 20 20 20 20 31 39 39                199
0330 : 38 31 31 32 33 31 30 34  39 35 35 30 30 00 31 39   8112310495500.19
0340 : 39 38 31 31 32 33 31 30  34 39 35 35 30 30 00 30   98112310495500.0
0350 : 30 30 30 30 30 30 30 30  30 30 30 30 30 30 30 00   000000000000000.
0360 : 30 30 30 30 30 30 30 30  30 30 30 30 30 30 30 30   0000000000000000
0370 : 00 01 00 00 00 00 00 00  00 00 00 00 00 00 00 00   ................

Copy Protection:
    Copy Protection:

H:\: CD-Lock
H:\CONFIG.AFP: CD-Lock
H:\Gang1.afp: CD-Lock
H:\Gang2.afp: CD-Lock
H:\Gang3.afp: CD-Lock
H:\Gang4.afp: CD-Lock

Tracks and Write Offsets:
    DAT:

<rom name="Gansters (Track 01).bin" size="310332288" crc="a99e4ff5" md5="5debbc1ed0a9f191afb697a265c156ed" sha1="8faaae3e3d4f848b23b40e491b32fd24ee60012b" />
<rom name="Gansters (Track 02).bin" size="42860496" crc="21467724" md5="f415ea943c02d5a5559cad0e74d89155" sha1="152599cd528a8e04d2508669e97c9cb25444f96d" />
<rom name="Gansters (Track 03).bin" size="47416320" crc="b6755931" md5="f435a24369bc6ffe09866500624fd8c0" sha1="411f0a90908447f573caed64ccfed0626bc02995" />
<rom name="Gansters (Track 04).bin" size="49055664" crc="66000c73" md5="64c1a5060c6be206cf2e5b71612c3484" sha1="b7437b1bbe75792f3f36460c8a32c9aefe90af52" />
<rom name="Gansters (Track 05).bin" size="27840624" crc="80807a16" md5="525d4023a80e7c1f5b93afea071a942c" sha1="6f262b264e889aab316dfcbf6d4273c7daf3763f" />
<rom name="Gansters (Track 06).bin" size="42385392" crc="b4ea52cc" md5="2dc64f64c6401b13ff11b62d92a5a538" sha1="bcb3c130e882ed1b2b3b4854a592377a86f376b1" />
<rom name="Gansters (Track 07).bin" size="42860496" crc="b27665c6" md5="17d760149936526e7645ba69479089c1" sha1="5a35e7a80b2775f40ed503e640d462372a866401" />
<rom name="Gansters (Track 08).bin" size="1764000" crc="81ddd014" md5="d93dbb1bfadbdada79988f5449ae519e" sha1="cb0aa10bf06203455b539d40294bf2cde1dd61dc" />
<rom name="Gansters (Track 09).bin" size="3880800" crc="56903d96" md5="039286cd61d33ac2a516334949672529" sha1="5baa34fe7687fe35e2b20baa307180850335bb07" />
<rom name="Gansters (Track 10).bin" size="235105920" crc="c55467dc" md5="04a71fadbcb6bd4bb2b137cb6a45cb0d" sha1="1a916b91b9d9982b3daaa4b0cce2c2150f6f16b1" />
<rom name="Gansters (Track 11).bin" size="3010560" crc="98c42eef" md5="376af3f97d338d2b0ee0831463db1233" sha1="2c536ef1781e96126f2e09a502a17d29e896695d" />

    Cuesheet:

CATALOG 0000000000000
FILE "Gansters (Track 01).bin" BINARY
  TRACK 01 MODE1/2352
    INDEX 01 00:00:00
FILE "Gansters (Track 02).bin" BINARY
  TRACK 02 AUDIO
    INDEX 00 00:00:00
    INDEX 01 00:02:00
FILE "Gansters (Track 03).bin" BINARY
  TRACK 03 AUDIO
    INDEX 01 00:00:00
FILE "Gansters (Track 04).bin" BINARY
  TRACK 04 AUDIO
    INDEX 01 00:00:00
FILE "Gansters (Track 05).bin" BINARY
  TRACK 05 AUDIO
    INDEX 01 00:00:00
FILE "Gansters (Track 06).bin" BINARY
  TRACK 06 AUDIO
    INDEX 01 00:00:00
FILE "Gansters (Track 07).bin" BINARY
  TRACK 07 AUDIO
    INDEX 01 00:00:00
FILE "Gansters (Track 08).bin" BINARY
  TRACK 08 AUDIO
    INDEX 01 00:00:00
FILE "Gansters (Track 09).bin" BINARY
  TRACK 09 AUDIO
    INDEX 00 00:00:00
    INDEX 01 00:02:00
FILE "Gansters (Track 10).bin" BINARY
  TRACK 10 AUDIO
    INDEX 00 00:00:00
    INDEX 01 21:51:60
FILE "Gansters (Track 11).bin" BINARY
  TRACK 11 MODE1/2352
    INDEX 00 00:00:00
    INDEX 01 00:03:00

    Write Offset: 0