Match: http://redump.org/disc/37542/
Logs: https://drive.google.com/open?id=1ZZVzo … WWmNdO8n2Q

Common Disc Info:
    Title: WarCraft II: Beyond the Dark Portal
    Foreign Title (Non-latin): 
    Disc Number / Letter: (OPTIONAL)
    Disc Title: Expansion Set
    System: IBM PC Compatible
    Media Type: CD-ROM
    Category: Add-Ons
    Matching IDs: 37542
    Region: Europe
    Languages: English
    Disc Serial: (REQUIRED, IF EXISTS)

    Ringcode Information:
        Mastering Code (laser branded/etched): ·MASTERED BY NIMBUS·    CDD12535 DA-025-WCEX-E    :    
        Mastering SID Code: IFPI L123
        Data-Side Mould SID Code: IFPI 2322
        Label-Side Mould SID Code: (REQUIRED, IF EXISTS)
        Additional Mould: (REQUIRED, IF EXISTS)
        Toolstamp or Mastering Code (engraved/stamped): 1:1
    Barcode: 
    Error Count: 0
    Comments: 
    Contents: (OPTIONAL)

Version and Editions:
    Version: (REQUIRED, IF EXISTS)
    Edition/Release: Original

Extras:
    Primary Volume Descriptor (PVD):

0320 : 20 20 20 20 20 20 20 20  20 20 20 20 20 31 39 39                199
0330 : 36 30 35 30 38 31 31 34  35 31 32 30 30 00 31 39   6050811451200.19
0340 : 39 36 30 35 30 38 31 31  34 35 31 32 30 30 00 30   96050811451200.0
0350 : 30 30 30 30 30 30 30 30  30 30 30 30 30 30 30 00   000000000000000.
0360 : 30 30 30 30 30 30 30 30  30 30 30 30 30 30 30 30   0000000000000000
0370 : 00 01 00 00 00 00 00 00  00 00 00 00 00 00 00 00   ................

Copy Protection:
    Copy Protection: None found

Tracks and Write Offsets:
    DAT:

<rom name="WARCRAFT2_X (Track 01).bin" size="167093136" crc="d845c71d" md5="84fa749b3cc86e3483ddee137df4bf0c" sha1="6e09f45dfa60e3d7d12ca8163c2f288934746c43" />
<rom name="WARCRAFT2_X (Track 02).bin" size="68930064" crc="0bd5b134" md5="a7c66febe37c4f5021b6e634f6aee870" sha1="bac23647d169155e040b1f4636c9cc8c85a10e30" />
<rom name="WARCRAFT2_X (Track 03).bin" size="37796640" crc="2b09e8f3" md5="2d2616a3889c05cd47c5b9785d878911" sha1="fbd537acbf020d47adf093d463eb2b4d7e6ebd32" />
<rom name="WARCRAFT2_X (Track 04).bin" size="38020080" crc="3ae9f866" md5="1b54e72d67ba7c1872c90f3b3b70c4ae" sha1="825b65f51d008d86f69066f1460513bcb0650785" />
<rom name="WARCRAFT2_X (Track 05).bin" size="38817408" crc="820a10e7" md5="57a5856f813acde1a25a8d31e4085732" sha1="eede1156f42d388dc715ca0c2f174d2417337122" />
<rom name="WARCRAFT2_X (Track 06).bin" size="37810752" crc="167c759c" md5="9649d4c9a4fa0a5f6533f498547eb801" sha1="65dd0c64a7b0091a5ff5ffeb7f73c46f3e4ab824" />
<rom name="WARCRAFT2_X (Track 07).bin" size="9880752" crc="3b0cd73e" md5="2c41c2d5d45755e87076ee3aede80142" sha1="f4366f636337164665ca60009ca1faa631cffe49" />
<rom name="WARCRAFT2_X (Track 08).bin" size="6312768" crc="2190df02" md5="d9c1b8084919666efa716bccde247b1f" sha1="c5f11dc45319fb4e37d3842cc156f00665f6e76c" />
<rom name="WARCRAFT2_X (Track 09).bin" size="9765504" crc="da4d1c8b" md5="68e48b1009ada18d924078fafa58746e" sha1="e2781fc736379ce1a196b0de7fc45975c813deab" />
<rom name="WARCRAFT2_X (Track 10).bin" size="62619648" crc="632dca5d" md5="a76d4b3fe788efa6c910f1d2cf139d43" sha1="644fed7a4c5befa97826000ee4f93509c14e2a37" />
<rom name="WARCRAFT2_X (Track 11).bin" size="37853088" crc="6ccc1110" md5="d52a24f74438f172b5883f34046702ac" sha1="be56b2657f81d553c2a40e4d0fa6c3647c3b5bbd" />
<rom name="WARCRAFT2_X (Track 12).bin" size="37747248" crc="ee36535c" md5="319530bf11f07931fd600c568f01609b" sha1="b8a486fd7a876fe53b9afd1f86469376db2d0800" />
<rom name="WARCRAFT2_X (Track 13).bin" size="36646512" crc="248376fe" md5="a08b7e619cadc23fccd7899fb5bc0ea1" sha1="3bdcfb663319aa0a8f47e4bcd4b76abaaf225c14" />
<rom name="WARCRAFT2_X (Track 14).bin" size="37481472" crc="7f85dff3" md5="9b059781c115d6d3233118196250f6ce" sha1="c1bba632bc617af3641ce3a34bd48bb4bdee0c30" />
<rom name="WARCRAFT2_X (Track 15).bin" size="15041040" crc="8147cf32" md5="be332de6504a35991e6bf4f1550dfed2" sha1="9c22189d282ca1bca94a824d260e5da88f5e6d62" />
<rom name="WARCRAFT2_X (Track 16).bin" size="7140672" crc="7dfb6066" md5="2184835c8053226b88749ec1f808e005" sha1="b44b3ca33ddc254f2b3d3ae0347052e3d44d5ec6" />
<rom name="WARCRAFT2_X (Track 17).bin" size="7683984" crc="ff67777b" md5="7a4a5051bbe975425bada3d650173928" sha1="b2776482d8f9201924de7a047366b2e1471fbf2d" />
<rom name="WARCRAFT2_X (Track 18).bin" size="23997456" crc="1a1eb0ab" md5="58e85769c76d1749b65bc7ce2274f0b3" sha1="1fe84b3ed007f4fe432f3f4f2e1549823c0f82f4" />

    Cuesheet:

CATALOG 0000000000000
FILE "WARCRAFT2_X (Track 01).bin" BINARY
  TRACK 01 MODE1/2352
    INDEX 01 00:00:00
FILE "WARCRAFT2_X (Track 02).bin" BINARY
  TRACK 02 AUDIO
    INDEX 00 00:00:00
    INDEX 01 00:02:00
FILE "WARCRAFT2_X (Track 03).bin" BINARY
  TRACK 03 AUDIO
    INDEX 01 00:00:00
FILE "WARCRAFT2_X (Track 04).bin" BINARY
  TRACK 04 AUDIO
    INDEX 01 00:00:00
FILE "WARCRAFT2_X (Track 05).bin" BINARY
  TRACK 05 AUDIO
    INDEX 01 00:00:00
FILE "WARCRAFT2_X (Track 06).bin" BINARY
  TRACK 06 AUDIO
    INDEX 01 00:00:00
FILE "WARCRAFT2_X (Track 07).bin" BINARY
  TRACK 07 AUDIO
    INDEX 01 00:00:00
FILE "WARCRAFT2_X (Track 08).bin" BINARY
  TRACK 08 AUDIO
    INDEX 01 00:00:00
FILE "WARCRAFT2_X (Track 09).bin" BINARY
  TRACK 09 AUDIO
    INDEX 01 00:00:00
FILE "WARCRAFT2_X (Track 10).bin" BINARY
  TRACK 10 AUDIO
    INDEX 01 00:00:00
FILE "WARCRAFT2_X (Track 11).bin" BINARY
  TRACK 11 AUDIO
    INDEX 01 00:00:00
FILE "WARCRAFT2_X (Track 12).bin" BINARY
  TRACK 12 AUDIO
    INDEX 01 00:00:00
FILE "WARCRAFT2_X (Track 13).bin" BINARY
  TRACK 13 AUDIO
    INDEX 01 00:00:00
FILE "WARCRAFT2_X (Track 14).bin" BINARY
  TRACK 14 AUDIO
    INDEX 01 00:00:00
FILE "WARCRAFT2_X (Track 15).bin" BINARY
  TRACK 15 AUDIO
    INDEX 01 00:00:00
FILE "WARCRAFT2_X (Track 16).bin" BINARY
  TRACK 16 AUDIO
    INDEX 01 00:00:00
FILE "WARCRAFT2_X (Track 17).bin" BINARY
  TRACK 17 AUDIO
    INDEX 01 00:00:00
FILE "WARCRAFT2_X (Track 18).bin" BINARY
  TRACK 18 AUDIO
    INDEX 01 00:00:00

    Write Offset: 0