Match: http://redump.org/disc/43166/
Logs: https://drive.google.com/open?id=1Ua1ud … v7rP05OChO

Common Disc Info:
    Title: WarCraft II: Tides of Darkness
    Foreign Title (Non-latin): 
    Disc Number / Letter: (OPTIONAL)
    Disc Title: (OPTIONAL)
    System: IBM PC Compatible
    Media Type: CD-ROM
    Category: Games
    Matching IDs: 43166
    Region: USA
    Languages: English
    Disc Serial: (REQUIRED, IF EXISTS)

    Ringcode Information:
        Mastering Code (laser branded/etched): 10500    :    NIMBUS
        Mastering SID Code: IFPI L126
        Data-Side Mould SID Code: (REQUIRED, IF EXISTS)
        Label-Side Mould SID Code: (REQUIRED, IF EXISTS)
        Additional Mould: (REQUIRED, IF EXISTS)
        Toolstamp or Mastering Code (engraved/stamped): (REQUIRED, IF EXISTS)
    Barcode: 
    Error Count: 0
    Comments: 
    Contents: (OPTIONAL)

Version and Editions:
    Version: 1.0
    Edition/Release: Original

Extras:
    Primary Volume Descriptor (PVD):

0320 : 20 20 20 20 20 20 20 20  20 20 20 20 20 31 39 39                199
0330 : 35 31 31 32 37 31 36 35  39 32 37 30 30 00 31 39   5112716592700.19
0340 : 39 35 31 31 32 37 31 36  35 39 32 37 30 30 00 30   95112716592700.0
0350 : 30 30 30 30 30 30 30 30  30 30 30 30 30 30 30 00   000000000000000.
0360 : 30 30 30 30 30 30 30 30  30 30 30 30 30 30 30 30   0000000000000000
0370 : 00 01 00 00 00 00 00 00  00 00 00 00 00 00 00 00   ................

Copy Protection:
    Copy Protection: 

Tracks and Write Offsets:
    DAT:

<rom name="WARCRAFT2 (Track 01).bin" size="152625984" crc="67a4b945" md5="9269e71d708e2802260be229c879a58f" sha1="dd80454c27b2db653cbd611597d4ca9a1c7c13a0" />
<rom name="WARCRAFT2 (Track 02).bin" size="38492832" crc="46936e72" md5="f29283de3acdd37beac7e251a09342ed" sha1="a1ad5a627d538b937840d4004618689d56483c68" />
<rom name="WARCRAFT2 (Track 03).bin" size="37796640" crc="e83fed3f" md5="fae1ba6c01a375c5855228a0faf6a086" sha1="1795e0a7380a32ebe36f8ff5bba55e5238398003" />
<rom name="WARCRAFT2 (Track 04).bin" size="38020080" crc="71c9d6bb" md5="c925c5abea0e6315fe4ae9d404e84ba5" sha1="0d165430aaec232238b5d35beba59755763e9c04" />
<rom name="WARCRAFT2 (Track 05).bin" size="38817408" crc="4b0a722d" md5="371ddc3feedc0661d9fe73f31bee4491" sha1="eb1034dea9e1e4e03753c69c496b157f48707ea5" />
<rom name="WARCRAFT2 (Track 06).bin" size="37810752" crc="b97ffc14" md5="4931ef031bf2d75407960a9c45343a43" sha1="2dece721d7a7e3f84f60987aa6763a0102387239" />
<rom name="WARCRAFT2 (Track 07).bin" size="9880752" crc="82f579c3" md5="125364335d6bb99996f0dff0ac7ec584" sha1="50b46142cb7bfdd50f3a09fb78d37a844d731eb8" />
<rom name="WARCRAFT2 (Track 08).bin" size="6312768" crc="1b1f426a" md5="c82cffa0d39b38a2be9f9935f6668797" sha1="0794c12d8d2e3635fa18862aae75cb98c9f5c095" />
<rom name="WARCRAFT2 (Track 09).bin" size="9765504" crc="352c5729" md5="986605fd2b30bc1ecddf9500c3f64a10" sha1="d4e532d945bbc92b31398cbd0f1aced7d843b23c" />
<rom name="WARCRAFT2 (Track 10).bin" size="37359168" crc="eb6736ca" md5="7b5bbfccf85b9786c1e9443bfed9d080" sha1="7fb5ba499cf334d578a5ffefb52790e6b0c61596" />
<rom name="WARCRAFT2 (Track 11).bin" size="37853088" crc="239c2a94" md5="cab42bcea3d73d8c65003639552caae9" sha1="b5449c28fc7bf3a8be9ce9e5b73e243ff6332b8b" />
<rom name="WARCRAFT2 (Track 12).bin" size="37747248" crc="39c8e64e" md5="c1ef247e73c66f06a36530d71153d291" sha1="ad95035c715b82a24046aed1e67da4f098e2cf15" />
<rom name="WARCRAFT2 (Track 13).bin" size="36646512" crc="b7886ba0" md5="c8134b4b3e2d142f93e42598d9cbe881" sha1="37189fafcf1de93b46368a9194e161be5dbae758" />
<rom name="WARCRAFT2 (Track 14).bin" size="37481472" crc="8f852603" md5="f3ab37378d29476f1163d3c9b992fdac" sha1="1016ee9b0ddf9243efc265c49a948fb93498cdcd" />
<rom name="WARCRAFT2 (Track 15).bin" size="15041040" crc="ec11e99e" md5="304182bdf7ed2dbdb562ab72e29dc319" sha1="e4bfb5003f608daf4f3fdb84601187d6de7d24f5" />
<rom name="WARCRAFT2 (Track 16).bin" size="7140672" crc="270d462d" md5="1c969bbdd22ff7d80bdbfcc70d381495" sha1="0e60990f1424aeb64854c185a680f4e8bafa00a3" />
<rom name="WARCRAFT2 (Track 17).bin" size="7683984" crc="9fdc9e2c" md5="ca49dc4a499c6478a3b885e5c21e35f1" sha1="93e6d6426fbdb821aff2c723d7b4f332b3f1a8e0" />

    Cuesheet:

CATALOG 0000000000000
FILE "WARCRAFT2 (Track 01).bin" BINARY
  TRACK 01 MODE1/2352
    INDEX 01 00:00:00
FILE "WARCRAFT2 (Track 02).bin" BINARY
  TRACK 02 AUDIO
    INDEX 00 00:00:00
    INDEX 01 00:02:00
FILE "WARCRAFT2 (Track 03).bin" BINARY
  TRACK 03 AUDIO
    INDEX 01 00:00:00
FILE "WARCRAFT2 (Track 04).bin" BINARY
  TRACK 04 AUDIO
    INDEX 01 00:00:00
FILE "WARCRAFT2 (Track 05).bin" BINARY
  TRACK 05 AUDIO
    INDEX 01 00:00:00
FILE "WARCRAFT2 (Track 06).bin" BINARY
  TRACK 06 AUDIO
    INDEX 01 00:00:00
FILE "WARCRAFT2 (Track 07).bin" BINARY
  TRACK 07 AUDIO
    INDEX 01 00:00:00
FILE "WARCRAFT2 (Track 08).bin" BINARY
  TRACK 08 AUDIO
    INDEX 01 00:00:00
FILE "WARCRAFT2 (Track 09).bin" BINARY
  TRACK 09 AUDIO
    INDEX 01 00:00:00
FILE "WARCRAFT2 (Track 10).bin" BINARY
  TRACK 10 AUDIO
    INDEX 01 00:00:00
FILE "WARCRAFT2 (Track 11).bin" BINARY
  TRACK 11 AUDIO
    INDEX 01 00:00:00
FILE "WARCRAFT2 (Track 12).bin" BINARY
  TRACK 12 AUDIO
    INDEX 01 00:00:00
FILE "WARCRAFT2 (Track 13).bin" BINARY
  TRACK 13 AUDIO
    INDEX 01 00:00:00
FILE "WARCRAFT2 (Track 14).bin" BINARY
  TRACK 14 AUDIO
    INDEX 01 00:00:00
FILE "WARCRAFT2 (Track 15).bin" BINARY
  TRACK 15 AUDIO
    INDEX 01 00:00:00
FILE "WARCRAFT2 (Track 16).bin" BINARY
  TRACK 16 AUDIO
    INDEX 01 00:00:00
FILE "WARCRAFT2 (Track 17).bin" BINARY
  TRACK 17 AUDIO
    INDEX 01 00:00:00

    Write Offset: 222