Match: http://redump.org/disc/37482/
Logs: https://drive.google.com/open?id=1_K7df … rBtG2tT7sO

Common Disc Info:
    Title: Time Commando
    Foreign Title (Non-latin): 
    Disc Number / Letter: (OPTIONAL)
    Disc Title: (OPTIONAL)
    System: IBM PC Compatible
    Media Type: CD-ROM
    Category: Games
    Matching IDs: 37482
    Region: Europe
    Languages: English, French, German, Italian, Portuguese, Spanish, Swedish
    Disc Serial: (REQUIRED, IF EXISTS)

    Ringcode Information:
        Mastering Code (laser branded/etched): IFPI L851
        Mastering SID Code: (REQUIRED, IF EXISTS)
        Data-Side Mould SID Code: (REQUIRED, IF EXISTS)
        Label-Side Mould SID Code: (REQUIRED, IF EXISTS)
        Additional Mould: (REQUIRED, IF EXISTS)
        Toolstamp or Mastering Code (engraved/stamped): (REQUIRED, IF EXISTS)
    Barcode: 
    Error Count: 0
    Comments: 
    Contents: (OPTIONAL)

Version and Editions:
    Version: 
    Edition/Release: Original

Extras:
    Primary Volume Descriptor (PVD):

0320 : 20 20 20 20 20 20 20 20  20 20 20 20 20 30 30 30                000
0330 : 30 30 30 30 30 30 30 30  30 30 30 30 30 00 30 30   0000000000000.00
0340 : 30 30 30 30 30 30 30 30  30 30 30 30 30 30 00 30   00000000000000.0
0350 : 30 30 30 30 30 30 30 30  30 30 30 30 30 30 30 00   000000000000000.
0360 : 30 30 30 30 30 30 30 30  30 30 30 30 30 30 30 30   0000000000000000
0370 : 00 01 00 00 00 00 00 00  00 00 00 00 00 00 00 00   ................

Copy Protection:
    Copy Protection: 

Tracks and Write Offsets:
    DAT:

<rom name="TIMECOMM (Track 1).bin" size="564258912" crc="d0b92969" md5="a659d3eda2d04dcf2bb98f7978e2002d" sha1="939e5f3e6cdfdd2ac43d4fc54b3ece4cadd55d67" />
<rom name="TIMECOMM (Track 2).bin" size="33400752" crc="e49ae8c6" md5="64862e50f86c305d633b4d8ef17d5632" sha1="f21be37aab13e6e8cac48ed47acd08be0c263a5c" />
<rom name="TIMECOMM (Track 3).bin" size="34087536" crc="bee1be89" md5="d311fef7c3a40bce2446d062d9b62927" sha1="82804a77b8919823e81cbcc8a64bf4f38357c60c" />

    Cuesheet:

CATALOG 0000000000000
FILE "TIMECOMM (Track 1).bin" BINARY
  TRACK 01 MODE1/2352
    INDEX 01 00:00:00
FILE "TIMECOMM (Track 2).bin" BINARY
  TRACK 02 AUDIO
    INDEX 00 00:00:00
    INDEX 01 00:02:01
FILE "TIMECOMM (Track 3).bin" BINARY
  TRACK 03 AUDIO
    INDEX 00 00:00:00
    INDEX 01 00:01:74

    Write Offset: 222