Match: http://redump.org/disc/31657/
Logs: https://drive.google.com/open?id=1JD_GS … nS63SS3C6a

Common Disc Info:
    Title: Plane Crazy
    Foreign Title (Non-latin): 
    Disc Number / Letter: (OPTIONAL)
    Disc Title: (OPTIONAL)
    System: IBM PC Compatible
    Media Type: CD-ROM
    Category: Games
    Matching IDs: 31657
    Region: Europe
    Languages: English, French, German, Italian, Spanish
    Disc Serial: (REQUIRED, IF EXISTS)

    Ringcode Information:
        Mastering Code (laser branded/etched): S PLANECRAZY    02
        Mastering SID Code: IFPI L501
        Data-Side Mould SID Code: (REQUIRED, IF EXISTS)
        Label-Side Mould SID Code: (REQUIRED, IF EXISTS)
        Additional Mould: (REQUIRED, IF EXISTS)
        Toolstamp or Mastering Code (engraved/stamped): (REQUIRED, IF EXISTS)
    Barcode: 
    Error Count: 0
    Comments: [T:ISBN] (OPTIONAL)
    Contents: (OPTIONAL)

Version and Editions:
    Version: (REQUIRED, IF EXISTS)
    Edition/Release: Original

Extras:
    Primary Volume Descriptor (PVD):

0320 : 20 20 20 20 20 20 20 20  20 20 20 20 20 31 39 39                199
0330 : 38 30 33 32 37 31 35 30  32 35 36 37 34 AA 31 39   8032715025674.19
0340 : 39 38 30 33 32 37 31 35  30 34 34 34 37 38 AA 00   98032715044478..
0350 : 00 00 00 00 00 00 00 00  00 00 00 00 00 00 00 00   ................
0360 : 00 00 00 00 00 00 00 00  00 00 00 00 00 00 00 00   ................
0370 : 00 01 00 00 00 00 00 00  00 00 00 00 00 00 00 00   ................

Copy Protection:
    Copy Protection: 

Tracks and Write Offsets:
    DAT:

<rom name="PlaneCrazy (Track 1).bin" size="262469088" crc="dca8f41c" md5="b97e52c7ccb44dc2fd3cdddc2bcfd8a1" sha1="2a7928e8612ac7f5408107193558f4eb359c0860" />
<rom name="PlaneCrazy (Track 2).bin" size="33264336" crc="8e5ba142" md5="6aa7fe6fc8c20090d1f3ec6b604948e0" sha1="f9e727e4a06357775001a741c55358bae82f5099" />
<rom name="PlaneCrazy (Track 3).bin" size="40052208" crc="6211c0bc" md5="4c92336ceef279d88d622fbdc11b60b1" sha1="eba43e85aabe1ec64cf54589a718d2af36cd09e2" />
<rom name="PlaneCrazy (Track 4).bin" size="39802896" crc="fbf72d8b" md5="fcd9cf58d36c54782a320ed13bfd791d" sha1="aa8dd433775f783aeb0f38d11fa972b95e79765d" />
<rom name="PlaneCrazy (Track 5).bin" size="48876912" crc="dae44570" md5="1679b2280fcdd058e6c3ae5faa75b9ad" sha1="e78d4a99a97da8950bb07254cafbc2b468df1fe6" />
<rom name="PlaneCrazy (Track 6).bin" size="42206640" crc="83e6abdc" md5="3f3ff901fc6bb2c0a73d0e1ff067b183" sha1="1167a72081bd899f3fe3112b32783d794c55d32f" />
<rom name="PlaneCrazy (Track 7).bin" size="35280000" crc="d6130dd5" md5="db353801a9640b4c82b160345031b215" sha1="a63f24da7073700a1befcae9b07e3ee6ab721ccc" />
<rom name="PlaneCrazy (Track 8).bin" size="1378272" crc="494db70a" md5="5c0a3132b26715f14004f5c67a1f481e" sha1="5d861f827486ab412e7d756495c9525d50d18cc9" />

    Cuesheet:

FILE "PlaneCrazy (Track 1).bin" BINARY
  TRACK 01 MODE1/2352
    INDEX 01 00:00:00
FILE "PlaneCrazy (Track 2).bin" BINARY
  TRACK 02 AUDIO
    INDEX 00 00:00:00
    INDEX 01 00:02:00
FILE "PlaneCrazy (Track 3).bin" BINARY
  TRACK 03 AUDIO
    INDEX 00 00:00:00
    INDEX 01 00:02:00
FILE "PlaneCrazy (Track 4).bin" BINARY
  TRACK 04 AUDIO
    INDEX 00 00:00:00
    INDEX 01 00:02:00
FILE "PlaneCrazy (Track 5).bin" BINARY
  TRACK 05 AUDIO
    INDEX 00 00:00:00
    INDEX 01 00:02:00
FILE "PlaneCrazy (Track 6).bin" BINARY
  TRACK 06 AUDIO
    INDEX 00 00:00:00
    INDEX 01 00:02:00
FILE "PlaneCrazy (Track 7).bin" BINARY
  TRACK 07 AUDIO
    INDEX 00 00:00:00
    INDEX 01 00:02:00
FILE "PlaneCrazy (Track 8).bin" BINARY
  TRACK 08 AUDIO
    INDEX 00 00:00:00
    INDEX 01 00:02:00

    Write Offset: 0