Match: http://redump.org/disc/34693/
Logs: https://drive.google.com/open?id=1qVgtd … ZOpnqpEeaF

Common Disc Info:
    Title: Hexen II
    Foreign Title (Non-latin): 
    Disc Number / Letter: (OPTIONAL)
    Disc Title: (OPTIONAL)
    System: IBM PC Compatible
    Media Type: CD-ROM
    Category: Games
    Matching IDs: 34693
    Region: Europe
    Languages: English, French, German
    Disc Serial: 1000054-101-EU

    Ringcode Information:
        Mastering Code (laser branded/etched): NIMBUS    CDD18615 1000054-101-EU    ·
        Mastering SID Code: IFPI L123
        Data-Side Mould SID Code: IFPI 2322
        Label-Side Mould SID Code: (REQUIRED, IF EXISTS)
        Additional Mould: (REQUIRED, IF EXISTS)
        Toolstamp or Mastering Code (engraved/stamped): 1:3
    Barcode: (OPTIONAL)
    Error Count: 0
    Comments: [T:ISBN] (OPTIONAL)
    Contents: (OPTIONAL)

Version and Editions:
    Version: 1.03
    Edition/Release: Original

Extras:
    Primary Volume Descriptor (PVD):

0320 : 20 20 20 20 20 20 20 20  20 20 20 20 20 31 39 39                199
0330 : 37 30 39 30 38 31 37 32  36 30 37 34 34 4C 31 39   7090817260744L19
0340 : 39 37 30 39 30 38 31 37  32 39 30 37 37 34 00 00   97090817290774..
0350 : 00 00 00 00 00 00 00 00  00 00 00 00 00 00 00 00   ................
0360 : 00 00 00 00 00 00 00 00  00 00 00 00 00 00 00 00   ................
0370 : 00 01 00 00 00 00 00 00  00 00 00 00 00 00 00 00   ................

Copy Protection:
    Copy Protection: H:\INSTALL\_SYS1.CAB: CD Check, CD Check, CD Check, CD Check

Tracks and Write Offsets:
    DAT:

<rom name="HexenII (Track 01).bin" size="196107408" crc="d04b6857" md5="31925b5724134291b1a93a66d629b590" sha1="94b378b51d1b24111c6cf18232c6f1d91a869600" />
<rom name="HexenII (Track 02).bin" size="33666528" crc="f48e4685" md5="4405b9b36ed43b8d9e936597beda1ad3" sha1="df746587593d1664e3b32eb9517113674da8596b" />
<rom name="HexenII (Track 03).bin" size="33306672" crc="b968084e" md5="1a2ca110f57340173eb2ed4305df737a" sha1="3550af9e4d64457778df541c21cd1cf716fc631a" />
<rom name="HexenII (Track 04).bin" size="33015024" crc="476f154b" md5="e4cf18136ed611d7f17c1a0edd028581" sha1="0320cf705cb682c3fb3d5e25a36cc4b70971c206" />
<rom name="HexenII (Track 05).bin" size="33339600" crc="c3045f00" md5="275b24ac5156eaf30b684d08a7194c78" sha1="4b064f73cf5209ec49d9213b220ef9afa516e389" />
<rom name="HexenII (Track 06).bin" size="32257680" crc="681cfdd8" md5="7ecf344470aa16abfe53863e7b674702" sha1="acd4097b69e484493f23998d0165353fa5efe0d0" />
<rom name="HexenII (Track 07).bin" size="34579104" crc="2e703e39" md5="3b32725f32b5924b3c1810fc1616501b" sha1="bdebf829c4ac36ee11b6bc4eaa44dcccccd92ca2" />
<rom name="HexenII (Track 08).bin" size="33186720" crc="f30948ec" md5="d45717db3d22b8317cd3c5d64631d3ba" sha1="6542244eb58be9f63082eb606bd80f35378a669a" />
<rom name="HexenII (Track 09).bin" size="32650464" crc="f6cb452e" md5="792498f01a1404c7847706338a0ac356" sha1="714612210b227d23b77b5de22fd196987734e2eb" />
<rom name="HexenII (Track 10).bin" size="34485024" crc="c5f5f2b0" md5="4d9873a9a36cf5a2f319f3ac41a137e3" sha1="3116939a0484b8a100916e7f5b3743c56f800d95" />
<rom name="HexenII (Track 11).bin" size="33247872" crc="3fdc96a5" md5="9f99e840f1fe2a0faab15f8ca4326bd9" sha1="f361423c228cdfd98a714afc17b846e8f4ccabf4" />
<rom name="HexenII (Track 12).bin" size="34096944" crc="e1b86543" md5="2651763272ee8a003343c027853ce277" sha1="0ce25f4497dfa878dd2b26e759a144f68f80a021" />
<rom name="HexenII (Track 13).bin" size="35308224" crc="055d2156" md5="4de88001b43de037a8ac79078e0e67ab" sha1="e1791305fa897d6cca90fea707ed900092cef752" />
<rom name="HexenII (Track 14).bin" size="33278448" crc="0d454e64" md5="b9bfa8f0cd1d1cc0ad65f8653acc8f50" sha1="ff7bc3c7b5e74796476b03754713c9585053bc02" />
<rom name="HexenII (Track 15).bin" size="33240816" crc="3937cad0" md5="d7a7813e08b65bd8746fea31bac974d4" sha1="7175267ecdc3f7d2e86e7c667182e42c0ee4d703" />
<rom name="HexenII (Track 16).bin" size="31695552" crc="bb471bc2" md5="e47dcc219532918db00e75d4ab651aea" sha1="91fba43bc384dcb703cac684fc1cbc5042ffebcc" />
<rom name="HexenII (Track 17).bin" size="32819808" crc="95776ccb" md5="07ac97ae63535d7de83f00a5e515b08d" sha1="3d36ab3842fd0116c753e31c520b46f8825217b7" />

    Cuesheet:

CATALOG 0000000000000
FILE "HexenII (Track 01).bin" BINARY
  TRACK 01 MODE1/2352
    INDEX 01 00:00:00
FILE "HexenII (Track 02).bin" BINARY
  TRACK 02 AUDIO
    INDEX 00 00:00:00
    INDEX 01 00:02:00
FILE "HexenII (Track 03).bin" BINARY
  TRACK 03 AUDIO
    INDEX 01 00:00:00
FILE "HexenII (Track 04).bin" BINARY
  TRACK 04 AUDIO
    INDEX 01 00:00:00
FILE "HexenII (Track 05).bin" BINARY
  TRACK 05 AUDIO
    INDEX 01 00:00:00
FILE "HexenII (Track 06).bin" BINARY
  TRACK 06 AUDIO
    INDEX 01 00:00:00
FILE "HexenII (Track 07).bin" BINARY
  TRACK 07 AUDIO
    INDEX 01 00:00:00
FILE "HexenII (Track 08).bin" BINARY
  TRACK 08 AUDIO
    INDEX 01 00:00:00
FILE "HexenII (Track 09).bin" BINARY
  TRACK 09 AUDIO
    INDEX 01 00:00:00
FILE "HexenII (Track 10).bin" BINARY
  TRACK 10 AUDIO
    INDEX 01 00:00:00
FILE "HexenII (Track 11).bin" BINARY
  TRACK 11 AUDIO
    INDEX 01 00:00:00
FILE "HexenII (Track 12).bin" BINARY
  TRACK 12 AUDIO
    INDEX 01 00:00:00
FILE "HexenII (Track 13).bin" BINARY
  TRACK 13 AUDIO
    INDEX 01 00:00:00
FILE "HexenII (Track 14).bin" BINARY
  TRACK 14 AUDIO
    INDEX 01 00:00:00
FILE "HexenII (Track 15).bin" BINARY
  TRACK 15 AUDIO
    INDEX 01 00:00:00
FILE "HexenII (Track 16).bin" BINARY
  TRACK 16 AUDIO
    INDEX 01 00:00:00
FILE "HexenII (Track 17).bin" BINARY
  TRACK 17 AUDIO
    INDEX 01 00:00:00

    Write Offset: 0