Match: http://redump.org/disc/16382/
Logs: https://drive.google.com/open?id=1EFxGA … K7YE-3vWR8

Common Disc Info:
    Title: Braveheart
    Foreign Title (Non-latin): 
    Disc Number / Letter: (OPTIONAL)
    Disc Title: (OPTIONAL)
    System: IBM PC Compatible
    Media Type: CD-ROM
    Category: Games
    Matching IDs: 16382
    Region: Europe
    Languages: English
    Disc Serial: (REQUIRED, IF EXISTS)

    Ringcode Information:
        Mastering Code (laser branded/etched): NIMBUS    DIL30080 MBRAVPEN01 :
        Mastering SID Code: IFPI L122
        Data-Side Mould SID Code: IFPI 2322
        Label-Side Mould SID Code: (REQUIRED, IF EXISTS)
        Additional Mould: (REQUIRED, IF EXISTS)
        Toolstamp or Mastering Code (engraved/stamped): 1:4
    Barcode: 5 032921 006217
    Error Count: 782
    Comments: [T:ISBN] (OPTIONAL)
    Contents: (OPTIONAL)

Version and Editions:
    Version: (REQUIRED, IF EXISTS)
    Edition/Release: Original

Extras:
    Primary Volume Descriptor (PVD):

0320 : 20 20 20 20 20 20 20 20  20 20 20 20 20 31 39 39                199
0330 : 39 30 37 30 39 31 34 30  34 33 33 30 30 00 31 39   9070914043300.19
0340 : 39 39 30 37 30 39 31 34  30 34 33 33 30 30 00 30   99070914043300.0
0350 : 30 30 30 30 30 30 30 30  30 30 30 30 30 30 30 00   000000000000000.
0360 : 30 30 30 30 30 30 30 30  30 30 30 30 30 30 30 30   0000000000000000
0370 : 00 01 00 00 00 00 00 00  00 00 00 00 00 00 00 00   ................

Copy Protection:
    Copy Protection:

H:\: SafeDisc 1.1x-1.2x
H:\00000001.TMP: SafeDisc 1 or greater
H:\00000809.016: SafeDisc 1
H:\00000809.256: SafeDisc 1
H:\bhd3d.exe: CD Check, SafeDisc 1.11.000
H:\BHD3D.icd: SafeDisc 1
H:\bhsoft.exe: CD Check, SafeDisc 1.11.000
H:\BHSOFT.icd: SafeDisc 1
H:\brave.exe: CD Check, SafeDisc 1.11.000
H:\BRAVE.icd: SafeDisc 1
H:\clcd16.dll: SafeDisc 1
H:\clcd32.dll: SafeDisc 1
H:\clokspl.exe: SafeDisc 1, CD Check
H:\data1.hdr: CD Check, CD Check
H:\dplayerx.dll: SafeDisc 1.1x-1.2x
H:\drvmgt.dll: SafeDisc 1.1x-1.3x
H:\secdrv.sys: SafeDisc 2 or greater

Tracks and Write Offsets:
    DAT:

<rom name="BRAVEHEART (Track 1).bin" size="615932352" crc="c0c9906f" md5="cb1b9b1c23e335d00a078a28c498bbf4" sha1="1a8879658ce47e727fb469def5ceabe048505a73" />
<rom name="BRAVEHEART (Track 2).bin" size="32949168" crc="40c05fef" md5="fe71b1513305c7cf7398d8f61e7167f4" sha1="18e3f79f4e67b595483a8f03885d5bbb20e99e44" />
<rom name="BRAVEHEART (Track 3).bin" size="21981792" crc="164e6de9" md5="284531b55ac88eab596bd853aa8016c3" sha1="19a34f50644762532fdd89ed54a3f428be897901" />
<rom name="BRAVEHEART (Track 4).bin" size="25128768" crc="3c01014d" md5="26ea62610dbe05e6b1bff354b2a91907" sha1="260f1958e327d7c8e6d3c918cfa8daceace8bcd7" />

    Cuesheet:

FILE "BRAVEHEART (Track 1).bin" BINARY
  TRACK 01 MODE1/2352
    INDEX 01 00:00:00
FILE "BRAVEHEART (Track 2).bin" BINARY
  TRACK 02 AUDIO
    INDEX 00 00:00:00
    INDEX 01 00:02:00
FILE "BRAVEHEART (Track 3).bin" BINARY
  TRACK 03 AUDIO
    INDEX 01 00:00:00
FILE "BRAVEHEART (Track 4).bin" BINARY
  TRACK 04 AUDIO
    INDEX 01 00:00:00

    Write Offset: -12