Match: http://redump.org/disc/38212/
Logs: https://drive.google.com/open?id=1ZE2B4 … aauRbgtLoa

Common Disc Info:
    Title: Carmageddon II: Carpocalypse Now
    Foreign Title (Non-latin): 
    Disc Number / Letter: (OPTIONAL)
    Disc Title: (OPTIONAL)
    System: IBM PC Compatible
    Media Type: CD-ROM
    Category: Games
    Matching IDs: 38212
    Region: Europe
    Languages: English
    Disc Serial: C-100-0008-40, F-110008-40

    Ringcode Information:
        Mastering Code (laser branded/etched): Sono press ROMM X-4492-1/CARMA/ZOMB C
        Mastering SID Code: IFPI LB46
        Data-Side Mould SID Code: IFPI 0785
        Label-Side Mould SID Code: (REQUIRED, IF EXISTS)
        Additional Mould: (REQUIRED, IF EXISTS)
        Toolstamp or Mastering Code (engraved/stamped): (REQUIRED, IF EXISTS)
    Barcode: 
    Error Count: 1251
    Comments: [T:ISBN] (OPTIONAL)
    Contents: (OPTIONAL)

Version and Editions:
    Version: (REQUIRED, IF EXISTS)
    Edition/Release: Zombie Version

Extras:
    Primary Volume Descriptor (PVD):

0320 : 20 20 20 20 20 20 20 20  20 20 20 20 20 31 39 39                199
0330 : 38 31 30 31 39 31 33 30  35 32 38 30 30 00 31 39   8101913052800.19
0340 : 39 38 31 30 31 39 31 33  30 35 32 38 30 30 00 30   98101913052800.0
0350 : 30 30 30 30 30 30 30 30  30 30 30 30 30 30 30 00   000000000000000.
0360 : 30 30 30 30 30 30 30 30  30 30 30 30 30 30 30 30   0000000000000000
0370 : 00 01 00 00 00 00 00 00  00 00 00 00 00 00 00 00   ................

Copy Protection:
    Copy Protection:

H:\: SafeDisc 1
H:\00000001.TMP: SafeDisc 1 or greater
H:\clcd16.dll: SafeDisc 1
H:\clcd32.dll: SafeDisc 1
H:\clokspl.exe: SafeDisc 1, CD Check
H:\dplayerx.dll: SafeDisc 1
H:\carma\CARMA2_HW.EXE: CD Check, SafeDisc 1.00.026
H:\carma\CARMA2_HW.icd: SafeDisc 1, CD Check
H:\carma\CARMA2_SW.EXE: CD Check, SafeDisc 1.00.026
H:\carma\CARMA2_SW.icd: SafeDisc 1, CD Check

Tracks and Write Offsets:
    DAT:

<rom name="Carmageddon2 (Track 1).bin" size="360519264" crc="5c336579" md5="59865703bdbf7842df9a03499b1b20de" sha1="f4ecd1f65ac8835a18b076b8280ef107ad5f7359" />
<rom name="Carmageddon2 (Track 2).bin" size="60159456" crc="f380280f" md5="d960f95997dd399b5d9fe8ed97a7c193" sha1="41c27e30c0bce8c15b47632ea894bda9e7af02ee" />
<rom name="Carmageddon2 (Track 3).bin" size="47103504" crc="657af0c3" md5="f6abc52feda272c1bcec15706e1c11ac" sha1="52913c8a1136c1ba4c8c03f1abfc3e6b3fdddd81" />
<rom name="Carmageddon2 (Track 4).bin" size="58745904" crc="ec2fb185" md5="2daaf6bb5dabd79bd8d20b795bb4e74f" sha1="7cc08679ffea0bb4cc3216cebfabaedb042e602b" />
<rom name="Carmageddon2 (Track 5).bin" size="40047504" crc="c5086e0f" md5="c6b8024fea3f2d838fe4a590cf36ccd9" sha1="4fe4945fb272f2b42114014c085587f22545cdbb" />
<rom name="Carmageddon2 (Track 6).bin" size="44198784" crc="5c91c581" md5="ad6e88eb4fa51443e8dad00e25699088" sha1="17567e1ebb080bfd49b44eb898162646249787ce" />
<rom name="Carmageddon2 (Track 7).bin" size="35879760" crc="50a2ddde" md5="d616b6a223f1057f8a651070adc730b4" sha1="a7dc920011d6bf90d1bc467f9b1ee29217e20bd0" />
<rom name="Carmageddon2 (Track 8).bin" size="47635056" crc="2699b5ef" md5="6070a7f5fffc2a2a9a780594253dee61" sha1="06ddcee4dde4df88209845d0745888c71e4887b8" />
<rom name="Carmageddon2 (Track 9).bin" size="45052560" crc="9d4dfc27" md5="e74c3236d190f8787103410405bed4f3" sha1="f46367b300f6fecfec885c622128822d1229b407" />

    Cuesheet:

FILE "Carmageddon2 (Track 1).bin" BINARY
  TRACK 01 MODE1/2352
    INDEX 01 00:00:00
FILE "Carmageddon2 (Track 2).bin" BINARY
  TRACK 02 AUDIO
    INDEX 00 00:00:00
    INDEX 01 00:02:00
FILE "Carmageddon2 (Track 3).bin" BINARY
  TRACK 03 AUDIO
    INDEX 00 00:00:00
    INDEX 01 00:01:74
FILE "Carmageddon2 (Track 4).bin" BINARY
  TRACK 04 AUDIO
    INDEX 00 00:00:00
    INDEX 01 00:01:74
FILE "Carmageddon2 (Track 5).bin" BINARY
  TRACK 05 AUDIO
    INDEX 00 00:00:00
    INDEX 01 00:01:74
FILE "Carmageddon2 (Track 6).bin" BINARY
  TRACK 06 AUDIO
    INDEX 00 00:00:00
    INDEX 01 00:01:74
FILE "Carmageddon2 (Track 7).bin" BINARY
  TRACK 07 AUDIO
    INDEX 00 00:00:00
    INDEX 01 00:01:74
FILE "Carmageddon2 (Track 8).bin" BINARY
  TRACK 08 AUDIO
    INDEX 00 00:00:00
    INDEX 01 00:01:74
FILE "Carmageddon2 (Track 9).bin" BINARY
  TRACK 09 AUDIO
    INDEX 00 00:00:00
    INDEX 01 00:01:74

    Write Offset: -12