Match: http://redump.org/disc/2251/
Logs: https://drive.google.com/open?id=1xdUxK … QNEwfgGQW-

Common Disc Info:
    Title: Quake
    Foreign Title (Non-latin): 
    Disc Number / Letter: (OPTIONAL)
    Disc Title: (OPTIONAL)
    System: IBM PC Compatible
    Media Type: CD-ROM
    Category: Games
    Matching IDs: 2251
    Region: Europe
    Languages: English
    Disc Serial: (REQUIRED, IF EXISTS)

    Ringcode Information:
        Mastering Code (laser branded/etched): 82692 QUAKE REGISTERED VER
        Mastering SID Code: IFPI L041
        Data-Side Mould SID Code: (REQUIRED, IF EXISTS)
        Label-Side Mould SID Code: (REQUIRED, IF EXISTS)
        Additional Mould: (REQUIRED, IF EXISTS)
        Toolstamp or Mastering Code (engraved/stamped): 1:2::5:
    Barcode: 
    Error Count: 0
    Comments: [T:ISBN] (OPTIONAL)
    Contents: (OPTIONAL)

Version and Editions:
    Version: 1.01
    Edition/Release: Original

Extras:
    Primary Volume Descriptor (PVD):

0320 : 20 20 20 20 20 20 20 20  20 20 20 20 20 31 39 39                199
0330 : 36 30 37 33 31 31 38 30  35 33 31 30 30 30 31 39   6073118053100019
0340 : 39 36 30 37 33 31 31 38  30 35 33 31 30 30 30 30   9607311805310000
0350 : 30 30 30 30 30 30 30 30  30 30 30 30 30 30 30 30   0000000000000000
0360 : 31 39 39 36 30 37 33 31  31 38 30 35 33 31 30 30   1996073118053100
0370 : 30 01 00 00 00 00 00 00  00 00 00 00 00 00 00 00   0...............

Copy Protection:
    Copy Protection: None found

Tracks and Write Offsets:
    DAT:

<rom name="QUAKE101 (Track 01).bin" size="39005568" crc="d5247f03" md5="a3bc7c6876630a56e144c5657c705dc9" sha1="a0fb65fe33f15dcbda459857c226433b87301fac" />
<rom name="QUAKE101 (Track 02).bin" size="54441744" crc="2b1c4a5d" md5="4fbb2f62a6639a943310c13bc0e6ce21" sha1="be3261680bdb6cb00249847a28da95318e0ba0e9" />
<rom name="QUAKE101 (Track 03).bin" size="25756752" crc="df6dacfd" md5="0c4827ba02cf8f22f3d83b9851f3cacf" sha1="18e114b2d305def320b59cca800583c997dafe84" />
<rom name="QUAKE101 (Track 04).bin" size="88244688" crc="68d2ce0c" md5="effd536289ec25852c25801306097dea" sha1="8f446d95a60ccb42aa76be6a5c06fe0bac1483a5" />
<rom name="QUAKE101 (Track 05).bin" size="64454208" crc="c0f87827" md5="ec107129d9127388a087d41ef2df5f80" sha1="5b8790353a6168798fa90be462a260c2ae8b9b1b" />
<rom name="QUAKE101 (Track 06).bin" size="78425088" crc="2e5d84fc" md5="f57c0a38080c60a02a633773a137b0a2" sha1="080ef587f782fddfc67e08f0dd7b47977e661df3" />
<rom name="QUAKE101 (Track 07).bin" size="91415184" crc="98cea966" md5="75c2472024d1731ada2e3ea0b9ffdc2b" sha1="fc096a05bce68f57b50a7ea9671c2a6854e4e996" />
<rom name="QUAKE101 (Track 08).bin" size="59256288" crc="83672e16" md5="d5011456e420c1c5925bc0e06fbdaa33" sha1="e961e378dde177362c78f8988027b5e830dd156d" />
<rom name="QUAKE101 (Track 09).bin" size="68605488" crc="fad6be8f" md5="d5ea74060c6292ba74373ae77c8eb085" sha1="0f643c7acbdf7a509590fe571e12c29253c02d25" />
<rom name="QUAKE101 (Track 10).bin" size="37495584" crc="21323d4a" md5="c7c61605fde02698dfb5d6366aa9a0a3" sha1="37bcfd9806765105436ef8d60a61ed19e6cb8ce3" />
<rom name="QUAKE101 (Track 11).bin" size="55987008" crc="c96a304f" md5="0c36a87b8917f2c38ff3c17a092524fa" sha1="6d23d156621dccedfa3a0de91ac41fc30770bbfa" />

    Cuesheet:

FILE "QUAKE101 (Track 01).bin" BINARY
  TRACK 01 MODE1/2352
    INDEX 01 00:00:00
FILE "QUAKE101 (Track 02).bin" BINARY
  TRACK 02 AUDIO
    FLAGS PRE
    INDEX 00 00:00:00
    INDEX 01 00:02:00
FILE "QUAKE101 (Track 03).bin" BINARY
  TRACK 03 AUDIO
    FLAGS PRE
    INDEX 00 00:00:00
    INDEX 01 00:01:73
FILE "QUAKE101 (Track 04).bin" BINARY
  TRACK 04 AUDIO
    FLAGS PRE
    INDEX 00 00:00:00
    INDEX 01 00:01:73
FILE "QUAKE101 (Track 05).bin" BINARY
  TRACK 05 AUDIO
    FLAGS PRE
    INDEX 00 00:00:00
    INDEX 01 00:01:73
FILE "QUAKE101 (Track 06).bin" BINARY
  TRACK 06 AUDIO
    FLAGS PRE
    INDEX 00 00:00:00
    INDEX 01 00:01:73
FILE "QUAKE101 (Track 07).bin" BINARY
  TRACK 07 AUDIO
    FLAGS PRE
    INDEX 00 00:00:00
    INDEX 01 00:01:73
FILE "QUAKE101 (Track 08).bin" BINARY
  TRACK 08 AUDIO
    FLAGS PRE
    INDEX 00 00:00:00
    INDEX 01 00:01:73
FILE "QUAKE101 (Track 09).bin" BINARY
  TRACK 09 AUDIO
    FLAGS PRE
    INDEX 00 00:00:00
    INDEX 01 00:01:73
FILE "QUAKE101 (Track 10).bin" BINARY
  TRACK 10 AUDIO
    FLAGS PRE
    INDEX 00 00:00:00
    INDEX 01 00:01:73
FILE "QUAKE101 (Track 11).bin" BINARY
  TRACK 11 AUDIO
    FLAGS PRE
    INDEX 00 00:00:00
    INDEX 01 00:01:73

    Write Offset: -22