Match: http://redump.org/disc/66295/
Logs: https://drive.google.com/open?id=1UeuXH … zxphPWGZFq

Common Disc Info:
    Title: Midtown Madness
    Foreign Title (Non-latin): Midtown Madness: Chicago Edition
    Disc Number / Letter: (OPTIONAL)
    Disc Title: (OPTIONAL)
    System: IBM PC Compatible
    Media Type: CD-ROM
    Category: Games
    Matching IDs: 66295
    Region: Europe
    Languages: English
    Disc Serial: 0299 Part No. X03-98384

    Ringcode Information:
        Mastering Code (laser branded/etched): X03-98383 (RNM1) 08
        Mastering SID Code: IFPI L122
        Data-Side Mould SID Code: ifpi 2336
        Label-Side Mould SID Code: (REQUIRED, IF EXISTS)
        Additional Mould: (REQUIRED, IF EXISTS)
        Toolstamp or Mastering Code (engraved/stamped): (REQUIRED, IF EXISTS)
    Barcode: (OPTIONAL)
    Error Count: 794
    Comments: [T:ISBN] (OPTIONAL)
    Contents: (OPTIONAL)

Version and Editions:
    Version: 1.0
    Edition/Release: Original

Extras:
    Primary Volume Descriptor (PVD):

0320 : 20 20 20 20 20 20 20 20  20 20 20 20 20 31 39 39                199
0330 : 39 30 34 31 35 31 34 35  33 35 33 30 30 00 31 39   9041514535300.19
0340 : 39 39 30 34 31 35 31 34  35 33 35 33 30 30 00 30   99041514535300.0
0350 : 30 30 30 30 30 30 30 30  30 30 30 30 30 30 30 00   000000000000000.
0360 : 30 30 30 30 30 30 30 30  30 30 30 30 30 30 30 30   0000000000000000
0370 : 00 01 00 00 00 00 00 00  00 00 00 00 00 00 00 00   ................

Copy Protection:
    Copy Protection:

H:\: SafeDisc 1.1x-1.2x
H:\00000001.TMP: SafeDisc 1 or greater
H:\00000409.016: SafeDisc 1
H:\00000409.256: SafeDisc 1
H:\CLCD16.DLL: SafeDisc 1
H:\CLCD32.DLL: SafeDisc 1
H:\CLOKSPL.EXE: SafeDisc 1, CD Check
H:\DPLAYERX.DLL: SafeDisc 1.1x-1.2x
H:\DRVMGT.DLL: SafeDisc 1.4x
H:\MIDTOWN.EXE: CD Check, SafeDisc 1.07.000
H:\MIDTOWN.ICD: SafeDisc 1, CD Check, SafeDisc 1.07.000
H:\SECDRV.SYS: SafeDisc 2 or greater

Tracks and Write Offsets:
    DAT:

<rom name="MIDTOWN (Track 01).bin" size="329536368" crc="2281683a" md5="3d9cbd4b838b16a142c28060f7417fae" sha1="54743f2e5a6de9c315c2e5cc4575006d41897b53" />
<rom name="MIDTOWN (Track 02).bin" size="14841120" crc="ce5a56c7" md5="9fe323e7be30bb6b47ecdd4d845a2a0b" sha1="9aca8c3e02e93ebd47280c0eb83c055ce9162040" />
<rom name="MIDTOWN (Track 03).bin" size="21158592" crc="b8549a7e" md5="d5711ede0acc46ecfbd6f8cc373fdb96" sha1="4666a9be0bfbc8989bdcd58b8dda1441e2dbaebb" />
<rom name="MIDTOWN (Track 04).bin" size="27885312" crc="502d58ff" md5="400aa72f0cb19eb7a657355991e4d587" sha1="d8f963371b52bb77a110ee7a3c39c291ccbfec4c" />
<rom name="MIDTOWN (Track 05).bin" size="30018576" crc="7c8bf67d" md5="69726fb26df071c7adab98f01d9cab40" sha1="afe88ffef7f327cac308e870e3b0a941941223a0" />
<rom name="MIDTOWN (Track 06).bin" size="29211840" crc="a9a21f18" md5="f20d37b03f8b5440b2ecd3283610548b" sha1="c1d29213873aa3ca82b5ce3da6273c151515be2c" />
<rom name="MIDTOWN (Track 07).bin" size="25079376" crc="9d15f668" md5="98cfdd863ea0ac57239c21ff8d82b152" sha1="5e5c2162bab7431e3333f5b0df9d50ab4fa62a63" />
<rom name="MIDTOWN (Track 08).bin" size="27198528" crc="b05cf07a" md5="ddea1ab30c28d7b55f4567c2301ed824" sha1="05c7a457a49db746089a0f0462a7cfb800006faf" />
<rom name="MIDTOWN (Track 09).bin" size="25131120" crc="20feb3ed" md5="d140a7a296f3cd792b90dada3dde8e32" sha1="7977eedd551edaa46dbbaa28923d0a784e0b0805" />
<rom name="MIDTOWN (Track 10).bin" size="27198528" crc="6d21986b" md5="049b7055a46096a3c59da3768944c35f" sha1="9821fd83aa5a7c702da797d192f3dd9551b8b3b1" />
<rom name="MIDTOWN (Track 11).bin" size="12832512" crc="c36377a2" md5="ef8a0459c4b89c20968a7285b1a323b0" sha1="5a21105147d4dd2d1d5d22bebe26ad0060f4f29d" />
<rom name="MIDTOWN (Track 12).bin" size="26467056" crc="219f9540" md5="92099187a54b8ec5535d21045187c174" sha1="6e688e0ff336ab41820f7191e9cb15930eab990a" />
<rom name="MIDTOWN (Track 13).bin" size="30147936" crc="4b5d86d1" md5="ab954d562c218aae25640ed26b54c3ef" sha1="63b5590e86aad163502b949c519dbbd3c4ee7016" />
<rom name="MIDTOWN (Track 14).bin" size="30427824" crc="ad250eb9" md5="63f2125caeb2b697efa99dd535d4747c" sha1="8b65d67af27bcf690e8023045e8f89e5ffb27c0e" />
<rom name="MIDTOWN (Track 15).bin" size="25476864" crc="56f5ea7f" md5="bddd31de6ec07e0c07ad6c97e062e3e9" sha1="e5acf9b8af3ed733552cfaa71c88f3d221789eac" />
<rom name="MIDTOWN (Track 16).bin" size="25563888" crc="0a36f287" md5="0ea9e198a27a28533378e38c97a8cadd" sha1="1668f7be10b6e5339dbcb4a9d515d650b2917472" />

    Cuesheet:

FILE "MIDTOWN (Track 01).bin" BINARY
  TRACK 01 MODE1/2352
    INDEX 01 00:00:00
FILE "MIDTOWN (Track 02).bin" BINARY
  TRACK 02 AUDIO
    FLAGS DCP
    INDEX 00 00:00:00
    INDEX 01 00:02:00
FILE "MIDTOWN (Track 03).bin" BINARY
  TRACK 03 AUDIO
    FLAGS DCP
    INDEX 01 00:00:00
FILE "MIDTOWN (Track 04).bin" BINARY
  TRACK 04 AUDIO
    FLAGS DCP
    INDEX 01 00:00:00
FILE "MIDTOWN (Track 05).bin" BINARY
  TRACK 05 AUDIO
    FLAGS DCP
    INDEX 01 00:00:00
FILE "MIDTOWN (Track 06).bin" BINARY
  TRACK 06 AUDIO
    FLAGS DCP
    INDEX 01 00:00:00
FILE "MIDTOWN (Track 07).bin" BINARY
  TRACK 07 AUDIO
    FLAGS DCP
    INDEX 01 00:00:00
FILE "MIDTOWN (Track 08).bin" BINARY
  TRACK 08 AUDIO
    FLAGS DCP
    INDEX 01 00:00:00
FILE "MIDTOWN (Track 09).bin" BINARY
  TRACK 09 AUDIO
    FLAGS DCP
    INDEX 01 00:00:00
FILE "MIDTOWN (Track 10).bin" BINARY
  TRACK 10 AUDIO
    FLAGS DCP
    INDEX 01 00:00:00
FILE "MIDTOWN (Track 11).bin" BINARY
  TRACK 11 AUDIO
    FLAGS DCP
    INDEX 01 00:00:00
FILE "MIDTOWN (Track 12).bin" BINARY
  TRACK 12 AUDIO
    FLAGS DCP
    INDEX 01 00:00:00
FILE "MIDTOWN (Track 13).bin" BINARY
  TRACK 13 AUDIO
    FLAGS DCP
    INDEX 01 00:00:00
FILE "MIDTOWN (Track 14).bin" BINARY
  TRACK 14 AUDIO
    FLAGS DCP
    INDEX 01 00:00:00
FILE "MIDTOWN (Track 15).bin" BINARY
  TRACK 15 AUDIO
    FLAGS DCP
    INDEX 01 00:00:00
FILE "MIDTOWN (Track 16).bin" BINARY
  TRACK 16 AUDIO
    FLAGS DCP
    INDEX 01 00:00:00

    Write Offset: -12