Match: http://redump.org/disc/15033/
Logs: https://drive.google.com/open?id=1Dmks4 … MXShoXxxbN

Common Disc Info:
    Title: Kingpin: Life of Crime
    Foreign Title (Non-latin): 
    Disc Number / Letter: (OPTIONAL)
    Disc Title: (OPTIONAL)
    System: IBM PC Compatible
    Media Type: CD-ROM
    Category: Games
    Matching IDs: 15033
    Region: Europe
    Languages: English
    Disc Serial: CD-W95-848-E

    Ringcode Information:
        Mastering Code (laser branded/etched): Sono press XAM Z-5969/ KINGPIN A
        Mastering SID Code: IFPI LB47
        Data-Side Mould SID Code: (IFPI 0798
        Label-Side Mould SID Code: (REQUIRED, IF EXISTS)
        Additional Mould: (REQUIRED, IF EXISTS)
        Toolstamp or Mastering Code (engraved/stamped): (REQUIRED, IF EXISTS)
    Barcode: 
    Error Count: 0
    Comments: [T:ISBN] (OPTIONAL)
    Contents: (OPTIONAL)

Version and Editions:
    Version: (REQUIRED, IF EXISTS)
    Edition/Release: Original

Extras:
    Primary Volume Descriptor (PVD):

0320 : 20 20 20 20 20 20 20 20  20 20 20 20 20 31 39 39                199
0330 : 39 30 36 31 37 31 36 32  35 31 32 30 30 00 31 39   9061716251200.19
0340 : 39 39 30 36 31 37 31 36  32 35 31 32 30 30 00 30   99061716251200.0
0350 : 30 30 30 30 30 30 30 30  30 30 30 30 30 30 30 00   000000000000000.
0360 : 30 30 30 30 30 30 30 30  30 30 30 30 30 30 30 30   0000000000000000
0370 : 00 01 00 00 00 00 00 00  00 00 00 00 00 00 00 00   ................

Copy Protection:
    Copy Protection:

H:\demos\d3giants.exe: PE Compact 2
H:\kingpin\data1.hdr: CD Check, CD Check, CD Check, CD Check, CD Check

Tracks and Write Offsets:
    DAT:

<rom name="KINGPIN (Track 1).bin" size="557774448" crc="b022cbf5" md5="69bc69c0b403f4294a1606b717d7def8" sha1="b0a8d11656d808a727cc083fad5a48374fd78dbc" />
<rom name="KINGPIN (Track 2).bin" size="38791536" crc="68a1fbe3" md5="70ced8cfb4ba41a18a53b798d6221fb9" sha1="50e0e8f807e8c73d405a12e2276f478d48cd3b94" />
<rom name="KINGPIN (Track 3).bin" size="46176816" crc="21ef6eb0" md5="bdfdd32fe51f0d096df381e54470bfe7" sha1="e2c2836515b5fa0bc5c20efc23587d0c9fcc5e8e" />
<rom name="KINGPIN (Track 4).bin" size="38586912" crc="d5c5ac58" md5="98633cd13037a5228d8f957d5f05f682" sha1="00cd06b098e718aa80b09d58e74f27c90d2e193c" />
<rom name="KINGPIN (Track 5).bin" size="37751952" crc="4955df0b" md5="1d8823c4c2df22c56fa8e1bd9cd002e6" sha1="c6902f9ae7bc33ecfcf04d56c553603154b5c40a" />
<rom name="KINGPIN (Track 6).bin" size="46456704" crc="53532576" md5="2c3b5ac1a25a8242b13b05c86e1ca18a" sha1="a24df70224564240ad25b7178e1cd401a9fe0a91" />
<rom name="KINGPIN (Track 7).bin" size="38196480" crc="9f7bd5de" md5="1597ea10c83f47eb4f6b9c0685b28213" sha1="65d5ffa5e89b6671d8b60449d989f3c667ccad1c" />

    Cuesheet:

FILE "KINGPIN (Track 1).bin" BINARY
  TRACK 01 MODE2/2352
    INDEX 01 00:00:00
FILE "KINGPIN (Track 2).bin" BINARY
  TRACK 02 AUDIO
    INDEX 00 00:00:00
    INDEX 01 00:02:00
FILE "KINGPIN (Track 3).bin" BINARY
  TRACK 03 AUDIO
    INDEX 01 00:00:00
FILE "KINGPIN (Track 4).bin" BINARY
  TRACK 04 AUDIO
    INDEX 01 00:00:00
FILE "KINGPIN (Track 5).bin" BINARY
  TRACK 05 AUDIO
    INDEX 01 00:00:00
FILE "KINGPIN (Track 6).bin" BINARY
  TRACK 06 AUDIO
    INDEX 01 00:00:00
FILE "KINGPIN (Track 7).bin" BINARY
  TRACK 07 AUDIO
    INDEX 01 00:00:00

    Write Offset: -12