Match1: http://redump.org/disc/35860/
Match2: http://redump.org/disc/31971/

Logs: https://drive.google.com/open?id=1ZcHz6 … xdv19YTEMe

Common Disc Info:
    Title: Grand Theft Auto
    Foreign Title (Non-latin): 
    Disc Number / Letter: (OPTIONAL)
    Disc Title: (OPTIONAL)
    System: IBM PC Compatible
    Media Type: CD-ROM
    Category: Games
    Matching IDs: 31971
    Region: Europe
    Languages: English, French, German, Italian
    Disc Serial: 76896-423942

    Ringcode Information:
        Mastering Code (laser branded/etched): SONOPRESS ROMM T-6017 A
        Mastering SID Code: IFPI L030
        Data-Side Mould SID Code: IFPI 0795
        Label-Side Mould SID Code: (REQUIRED, IF EXISTS)
        Additional Mould: (REQUIRED, IF EXISTS)
        Toolstamp or Mastering Code (engraved/stamped): (REQUIRED, IF EXISTS)
    Barcode: 7 68964 23942 2
    Error Count: 0
    Comments: 
    Contents: (OPTIONAL)

Version and Editions:
    Version: 
    Edition/Release: Original

Extras:
    Primary Volume Descriptor (PVD):

0320 : 20 20 20 20 20 20 20 20  20 20 20 20 20 31 39 39                199
0330 : 37 31 30 31 36 31 39 32  33 34 31 00 00 04 31 39   71016192341...19
0340 : 39 37 31 30 31 36 31 39  32 33 34 31 00 00 04 32   971016192341...2
0350 : 39 39 37 31 30 31 36 31  39 32 33 34 30 00 00 04   9971016192340...
0360 : 31 39 39 37 31 30 31 36  31 39 32 33 34 30 00 00   19971016192340..
0370 : 04 01 00 00 00 00 00 00  00 00 00 00 00 00 00 00   ................

Copy Protection:
    Copy Protection: H:\SETUP\_SYS1.CAB: CD Check, CD Check, CD Check, CD Check

Tracks and Write Offsets:
    DAT:

<rom name="GrandTheftAuto (Track 01).bin" size="99099168" crc="69c082af" md5="35dea81046e8eac3053374cd637c0b2b" sha1="e0232c49cb60bbfc634bb284bad002e0c8fdf962" />
<rom name="GrandTheftAuto (Track 02).bin" size="24877104" crc="c16a943c" md5="a613cf53019abe64191f573eb88461aa" sha1="bf36a8ad3f891d96db946f5d7977f773d85528c2" />
<rom name="GrandTheftAuto (Track 03).bin" size="78855504" crc="d3ab8045" md5="3fc3d6ce0d3a66281db6ceb357be85f9" sha1="17e54144539b3abc6bb63b63a4d38e0a62e6bf90" />
<rom name="GrandTheftAuto (Track 04).bin" size="102845904" crc="7add9323" md5="79a40f438a2fc7b77f00d92393f06e7a" sha1="767877e5829d55e11e9bfa1b5923617d1ac4f9b7" />
<rom name="GrandTheftAuto (Track 05).bin" size="102140304" crc="c9065f44" md5="8f6161fc583ebfe8a19e553a779fae34" sha1="65cc07d69c61a907ba86c665230a388253aa2de3" />
<rom name="GrandTheftAuto (Track 06).bin" size="79913904" crc="bd0e01b5" md5="2af7b745dc511b74888f750672a77497" sha1="6ba9820162f0b4f5f14010974e99f387797e6457" />
<rom name="GrandTheftAuto (Track 07).bin" size="116605104" crc="eb920ff0" md5="9c1c054de73175122be2a80d2c3681fb" sha1="b430472b2a32eb83134f738f328ec857be07699e" />
<rom name="GrandTheftAuto (Track 08).bin" size="34049904" crc="cfbb71d5" md5="9810bef6aabcb718a0f830e39d38a5ce" sha1="3267d83107bf27ab9a320c2143af9d6f89afaac8" />
<rom name="GrandTheftAuto (Track 09).bin" size="92967504" crc="553dd7d5" md5="571ce34bc2ec5f102c05da0f28e2e5a6" sha1="a3ebbcec1cb04286f53fb8aa2453c1d38eb8c9da" />
<rom name="GrandTheftAuto (Track 10).bin" size="11117904" crc="9555f6e4" md5="1dca6e1a232194e0df02f0a491cf94b7" sha1="8f8922156a7df9a490dbcbc41bc14937a12adceb" />
<rom name="GrandTheftAuto (Track 11).bin" size="12705504" crc="fc4e4ef7" md5="769b737abd39babb1d98718c0cfccb1f" sha1="f3a51b183bf66c0f2c897863f786fc60a2b76675" />

    Cuesheet:

CATALOG 0000000000000
FILE "GrandTheftAuto (Track 01).bin" BINARY
  TRACK 01 MODE1/2352
    INDEX 01 00:00:00
FILE "GrandTheftAuto (Track 02).bin" BINARY
  TRACK 02 AUDIO
    INDEX 00 00:00:00
    INDEX 01 00:02:00
FILE "GrandTheftAuto (Track 03).bin" BINARY
  TRACK 03 AUDIO
    INDEX 01 00:00:00
FILE "GrandTheftAuto (Track 04).bin" BINARY
  TRACK 04 AUDIO
    INDEX 01 00:00:00
FILE "GrandTheftAuto (Track 05).bin" BINARY
  TRACK 05 AUDIO
    INDEX 01 00:00:00
FILE "GrandTheftAuto (Track 06).bin" BINARY
  TRACK 06 AUDIO
    INDEX 01 00:00:00
FILE "GrandTheftAuto (Track 07).bin" BINARY
  TRACK 07 AUDIO
    INDEX 01 00:00:00
FILE "GrandTheftAuto (Track 08).bin" BINARY
  TRACK 08 AUDIO
    INDEX 01 00:00:00
FILE "GrandTheftAuto (Track 09).bin" BINARY
  TRACK 09 AUDIO
    INDEX 01 00:00:00
FILE "GrandTheftAuto (Track 10).bin" BINARY
  TRACK 10 AUDIO
    INDEX 01 00:00:00
FILE "GrandTheftAuto (Track 11).bin" BINARY
  TRACK 11 AUDIO
    INDEX 01 00:00:00

    Write Offset: 0