Match: http://redump.org/disc/61604/
Logs: https://drive.google.com/open?id=1KsTl- … RfrdjDUJwh

Common Disc Info:
    Title: Carmageddon
    Foreign Title (Non-latin): 
    Disc Number / Letter: (OPTIONAL)
    Disc Title: (OPTIONAL)
    System: IBM PC Compatible
    Media Type: CD-ROM
    Category: Games
    Matching IDs: 61604
    Region: UK
    Languages: English
    Disc Serial: SCI 1501 E.Z.G. DISC

    Ringcode Information:
        Mastering Code (laser branded/etched): AAC0778 51096 DXPBBFCUK N    ·
        Mastering SID Code: IFPI L122
        Data-Side Mould SID Code: (REQUIRED, IF EXISTS)
        Label-Side Mould SID Code: (REQUIRED, IF EXISTS)
        Additional Mould: (REQUIRED, IF EXISTS)
        Toolstamp or Mastering Code (engraved/stamped): 1:1
    Barcode: 
    Error Count: 0
    Comments: Zombie Version
    Contents: (OPTIONAL)

Version and Editions:
    Version: (REQUIRED, IF EXISTS)
    Edition/Release: Original

Extras:
    Primary Volume Descriptor (PVD):

0320 : 20 20 20 20 20 20 20 20  20 20 20 20 20 31 39 39                199
0330 : 37 30 35 32 32 31 34 33  31 30 34 30 30 00 31 39   7052214310400.19
0340 : 39 37 30 35 32 32 31 34  33 31 30 34 30 30 00 32   97052214310400.2
0350 : 30 30 37 30 35 32 30 31  34 33 31 30 34 30 30 00   007052014310400.
0360 : 31 39 39 37 30 35 32 32  31 34 33 31 30 34 30 30   1997052214310400
0370 : 00 01 00 00 00 00 00 00  00 00 00 00 00 00 00 00   ................

Copy Protection:
    Copy Protection: None found

Tracks and Write Offsets:
    DAT:

<rom name="Carmageddon (Track 1).bin" size="356132784" crc="210ce574" md5="3db862669a53bb7e60bbd1fa3d4b2984" sha1="4a11d571a5456861b93f829e566ea8157b6f624a" />
<rom name="Carmageddon (Track 2).bin" size="45313632" crc="d8d7eeef" md5="d0e2f15a70ff7b6aa1fab89d1d4be6d2" sha1="afc35be6bb90ab33a83864d284ac11341f63c880" />
<rom name="Carmageddon (Track 3).bin" size="60088896" crc="ed602d89" md5="7d8daab0765a0748afcc4e64bac17d60" sha1="d12802cdf0994968a7bda2a02774923f7c54fe86" />
<rom name="Carmageddon (Track 4).bin" size="61039104" crc="8cf1ffe1" md5="1b29165701f38e10747846968b03e5c5" sha1="fbc43893b34377dbddf352fc584f27b95d681569" />
<rom name="Carmageddon (Track 5).bin" size="58978752" crc="d2164b34" md5="555cb06b2582bb9d2e4ac5bab963ee41" sha1="025e67f45e27651fc4f398132e73ae39402d215e" />
<rom name="Carmageddon (Track 6).bin" size="60324096" crc="a2058a13" md5="8dc0e0e5ec4c8e87ff47b5fefeb70671" sha1="7e0611693c534f8b31b7993bdec0b437483f6cfc" />
<rom name="Carmageddon (Track 7).bin" size="60293520" crc="949a38f2" md5="6e3f977db36d675eb4f911bd61f26deb" sha1="4a9a98186f6f597c046d838b84fe786fe15c7167" />
<rom name="Carmageddon (Track 8).bin" size="54265344" crc="09a1b08c" md5="7f4f86082e7705e5701d2d771c6d7621" sha1="93d26f4b4dc349ba97c3f59e6e09262e60cf30f2" />

    Cuesheet:

CATALOG 0000000000000
FILE "Carmageddon (Track 1).bin" BINARY
  TRACK 01 MODE1/2352
    INDEX 01 00:00:00
FILE "Carmageddon (Track 2).bin" BINARY
  TRACK 02 AUDIO
    INDEX 00 00:00:00
    INDEX 01 00:02:00
FILE "Carmageddon (Track 3).bin" BINARY
  TRACK 03 AUDIO
    INDEX 01 00:00:00
FILE "Carmageddon (Track 4).bin" BINARY
  TRACK 04 AUDIO
    INDEX 01 00:00:00
FILE "Carmageddon (Track 5).bin" BINARY
  TRACK 05 AUDIO
    INDEX 01 00:00:00
FILE "Carmageddon (Track 6).bin" BINARY
  TRACK 06 AUDIO
    INDEX 01 00:00:00
FILE "Carmageddon (Track 7).bin" BINARY
  TRACK 07 AUDIO
    INDEX 01 00:00:00
FILE "Carmageddon (Track 8).bin" BINARY
  TRACK 08 AUDIO
    INDEX 01 00:00:00

    Write Offset: 0