Match: http://redump.org/disc/40525/
Logs: https://drive.google.com/open?id=18Mdeu … 8NnhB7CWQc

Common Disc Info:
    Title: Age of Empires: The Rise of Rome Expansion
    Foreign Title (Non-latin): 
    Disc Number / Letter: (OPTIONAL)
    Disc Title: (OPTIONAL)
    System: IBM PC Compatible
    Media Type: CD-ROM
    Category: Add-Ons
    Matching IDs: 40525
    Region: USA
    Languages: English
    Disc Serial: 0898 Part No. X03-79210

    Ringcode Information:
        Mastering Code (laser branded/etched): X03-79209    + +    92251-01    
        Mastering SID Code: IFPI L027
        Data-Side Mould SID Code: (REQUIRED, IF EXISTS)
        Label-Side Mould SID Code: (REQUIRED, IF EXISTS)
        Additional Mould: (REQUIRED, IF EXISTS)
        Toolstamp or Mastering Code (engraved/stamped): (REQUIRED, IF EXISTS)
    Barcode: *X03-79206*
    Error Count: 0
    Comments: [T:ISBN] (OPTIONAL)
    Contents: 

Version and Editions:
    Version: 1.0
    Edition/Release: Original

Extras:
    Primary Volume Descriptor (PVD):

0320 : 20 20 20 20 20 20 20 20  20 20 20 20 20 31 39 39                199
0330 : 38 30 39 31 36 31 32 31  37 31 37 30 30 00 31 39   8091612171700.19
0340 : 39 38 30 39 31 36 31 32  31 37 31 37 30 30 00 32   98091612171700.2
0350 : 30 30 38 30 39 31 33 31  32 31 37 31 37 30 30 00   008091312171700.
0360 : 31 39 39 38 30 39 31 36  31 32 31 37 31 37 30 30   1998091612171700
0370 : 00 01 00 00 00 00 00 00  00 00 00 00 00 00 00 00   ................

Copy Protection:
    Copy Protection: 

Tracks and Write Offsets:
    DAT:

<rom name="AOE (Track 01).bin" size="349904688" crc="8c219bde" md5="3e67341d3b2572813ab1b1370bcb2eac" sha1="5d6814a241543dff1c36e8d58354c3c5997c98c0" />
<rom name="AOE (Track 02).bin" size="11934048" crc="878d68d5" md5="2f02451fb37bda9c2696fc08fc5c6077" sha1="74731811feb08a838f67215365321753e36b8ed9" />
<rom name="AOE (Track 03).bin" size="3913728" crc="0e1f12cb" md5="d64c419a220824c58c76b84ae2a80e09" sha1="2913df1e16770928b2353c9eb7632ee5dd5adc31" />
<rom name="AOE (Track 04).bin" size="9273936" crc="f15ee506" md5="65fbf9ba5ae078cba7ec6998196879d2" sha1="57438ea0ea0f3ce75ba287c02a9e21bca88791a4" />
<rom name="AOE (Track 05).bin" size="33722976" crc="f27fb3f8" md5="64a4d3cc240f8da5f78cdecb0d2629e8" sha1="f50033ff0d8cc20909c62b9de2e7346a8a4b5723" />
<rom name="AOE (Track 06).bin" size="24274992" crc="f67944f8" md5="877f4d8150a5fe2f4189c3d060a8dacf" sha1="82b016d31397a0b1ff9004b911c772bc02c6b7d4" />
<rom name="AOE (Track 07).bin" size="30557184" crc="8bce30ee" md5="dbfd2003f68187b63eceba740b1736d3" sha1="fec962a19e8cf0d98e9b8e002966a55c71667849" />
<rom name="AOE (Track 08).bin" size="30387840" crc="e1ec1daf" md5="e28f0fc94ed037437e1663712638b760" sha1="73f4895640dc349fbef9b5f0794b2da5bbfb4875" />
<rom name="AOE (Track 09).bin" size="37109856" crc="01c9b78f" md5="b38a22306bba309a7c85fd0dfff62df8" sha1="9cdef1f42f74c98ad0baca9ecbf491b1ba6f5664" />
<rom name="AOE (Track 10).bin" size="32866848" crc="e11912d2" md5="22509fbf60b4a2a644fb17e2d7c0edbf" sha1="b6e46eb88e11319d791946e8b93f10fc8c7c00fe" />
<rom name="AOE (Track 11).bin" size="32457600" crc="eeee7cc6" md5="27eb6f67320d344d3cf3968fb429ecea" sha1="38fd964de3986512e8f221366b84049f1de72a98" />
<rom name="AOE (Track 12).bin" size="35463456" crc="299d9126" md5="3f1b3325a21ccd1580a313bfda265ec5" sha1="07c6631837d6d2845e4338f2b0dd3b4ef38867a9" />
<rom name="AOE (Track 13).bin" size="28642656" crc="6755aff1" md5="7ce9b76be919c5913e510116fd4a40e2" sha1="0e3b2383fcea0295cddc75a7874c00a3868d08ce" />
<rom name="AOE (Track 14).bin" size="32252976" crc="02e81180" md5="a962fbb2ffdf3f848d506fc979ffe016" sha1="6ba95b42d1f8ab0bfb35f52240d29c9ab957b322" />
<rom name="AOE (Track 15).bin" size="15631392" crc="49007a91" md5="f80925bfbfbed1e72520046e79613330" sha1="6d8d746561a19f89cbf73c87b4af39502ccbcfdb" />

    Cuesheet:

FILE "AOE (Track 01).bin" BINARY
  TRACK 01 MODE1/2352
    INDEX 01 00:00:00
FILE "AOE (Track 02).bin" BINARY
  TRACK 02 AUDIO
    INDEX 00 00:00:00
    INDEX 01 00:01:00
FILE "AOE (Track 03).bin" BINARY
  TRACK 03 AUDIO
    INDEX 01 00:00:00
FILE "AOE (Track 04).bin" BINARY
  TRACK 04 AUDIO
    INDEX 01 00:00:00
FILE "AOE (Track 05).bin" BINARY
  TRACK 05 AUDIO
    INDEX 01 00:00:00
FILE "AOE (Track 06).bin" BINARY
  TRACK 06 AUDIO
    INDEX 01 00:00:00
FILE "AOE (Track 07).bin" BINARY
  TRACK 07 AUDIO
    INDEX 01 00:00:00
FILE "AOE (Track 08).bin" BINARY
  TRACK 08 AUDIO
    INDEX 01 00:00:00
FILE "AOE (Track 09).bin" BINARY
  TRACK 09 AUDIO
    INDEX 01 00:00:00
FILE "AOE (Track 10).bin" BINARY
  TRACK 10 AUDIO
    INDEX 01 00:00:00
FILE "AOE (Track 11).bin" BINARY
  TRACK 11 AUDIO
    INDEX 01 00:00:00
FILE "AOE (Track 12).bin" BINARY
  TRACK 12 AUDIO
    INDEX 01 00:00:00
FILE "AOE (Track 13).bin" BINARY
  TRACK 13 AUDIO
    INDEX 01 00:00:00
FILE "AOE (Track 14).bin" BINARY
  TRACK 14 AUDIO
    INDEX 01 00:00:00
FILE "AOE (Track 15).bin" BINARY
  TRACK 15 AUDIO
    INDEX 01 00:00:00

    Write Offset: -12