https://www.dropbox.com/s/8t97y44lucgzy … 29.7z?dl=0
Redump URL: http://redump.org/disc/60835/

Common Disc Info:
    Title: Action Replay: Premium CD 2
    Foreign Title (Non-latin): アクションリプレイプレミアムCD 2
    System: Audio CD
    Media Type: CD-ROM
    Category: Applications
    Region: Japan
    Disc Serial: KRTCD-00B

    Ringcode Information:
        Mastering Code (laser branded/etched): KRTCD-00B
        Mastering SID Code: IFPI LA01
        Data-Side Mould SID Code: <empty>
    Barcode: 4 512323 002259

Version and Editions:
    Edition/Release: Original

Tracks and Write Offsets:
    DAT:

<rom name="Action Replay - Premium CD 2 (Japan) (Track 01).bin" size="1185408" crc="0d46dca7" md5="0245928436c831129ba98aa0b7e2c009" sha1="72b965d6cab676efbb0095cdb30409a46130522a" />
<rom name="Action Replay - Premium CD 2 (Japan) (Track 02).bin" size="4287696" crc="b0a491f5" md5="07c4bd52dc49453b572bf85291fa1f91" sha1="4ac8f3d3bf8440b0d5f92265094e3fcdad2b2f63" />
<rom name="Action Replay - Premium CD 2 (Japan) (Track 03).bin" size="5595408" crc="bad2bb7b" md5="33b9482f6b156823ae3344c8898389b4" sha1="08b503739162eefb8bed0c535da5d16c1cc01f70" />
<rom name="Action Replay - Premium CD 2 (Japan) (Track 04).bin" size="5595408" crc="e209a8dc" md5="42b09381fc6897f79d8d94f62526d4b3" sha1="eb45d6f0c8621c5928dfdb310e1923e0c68e4da8" />
<rom name="Action Replay - Premium CD 2 (Japan) (Track 05).bin" size="4111296" crc="3830324d" md5="c5cf4a18663480555bf018fb2ecfae17" sha1="cc878ccaa510386a01e934dc2f8b4348c9209815" />
<rom name="Action Replay - Premium CD 2 (Japan) (Track 06).bin" size="9393888" crc="988189aa" md5="b22b818585a301b062e6d14cd01a50af" sha1="eebc8bdc4e0946be849ccafc59b95a606ceb226c" />
<rom name="Action Replay - Premium CD 2 (Japan) (Track 07).bin" size="3504480" crc="df233447" md5="940b8317044fb9a898667abe791ca8dd" sha1="b7fe4e24395d4a2d7aaac71af7012350c75d77fb" />
<rom name="Action Replay - Premium CD 2 (Japan) (Track 08).bin" size="7255920" crc="555eb358" md5="aaf82938c5bdbb6238d1ab9b4b98052a" sha1="eadb53863acb30c67ab1d11ac1cc7fbc27568b8d" />
<rom name="Action Replay - Premium CD 2 (Japan) (Track 09).bin" size="7255920" crc="f09268f1" md5="fcc94e1df67a4f5e0080e565246f50c8" sha1="9617085e1e9a43cef3de4293f276eb589f17a48e" />
<rom name="Action Replay - Premium CD 2 (Japan) (Track 10).bin" size="7255920" crc="f4985294" md5="18e231a631bc20297b09456112037fe2" sha1="9a39d9754f5f8de748a030020e8129562c4a4d88" />
<rom name="Action Replay - Premium CD 2 (Japan) (Track 11).bin" size="7255920" crc="bef4e56e" md5="6e252c32c9bc3120d0ba58db5ef7d746" sha1="b978dc6e642c875d1b0f100cd9cc4d12e27d443a" />
<rom name="Action Replay - Premium CD 2 (Japan) (Track 12).bin" size="7255920" crc="4a8d4732" md5="b0770a4911744c1e19921425279f6eef" sha1="67808a5a82706513e5625b983505e68a665b02bd" />
<rom name="Action Replay - Premium CD 2 (Japan) (Track 13).bin" size="7255920" crc="4bfc4a61" md5="734f3b16747c61003d77aae7e8393e31" sha1="8be762b1145ba1b35afb376731fdbffa47bf0dbe" />
<rom name="Action Replay - Premium CD 2 (Japan) (Track 14).bin" size="7255920" crc="7a9d64d7" md5="323358b5af06c594c0a809106ce47627" sha1="f51dbca7ae313d279c12d75bbb9e980d6005973d" />
<rom name="Action Replay - Premium CD 2 (Japan) (Track 15).bin" size="7255920" crc="a338bd2e" md5="4e2400aacc12585fd443beaad7a771a2" sha1="a9ad465ffaa3a61315311c6bce9d7f273f2c6ec7" />
<rom name="Action Replay - Premium CD 2 (Japan) (Track 16).bin" size="7255920" crc="7d7880d0" md5="4aeac28e89d6fb72a3324c99de8b978b" sha1="375bbf0f2c96072d06434c438dc114d9a15978fd" />
<rom name="Action Replay - Premium CD 2 (Japan) (Track 17).bin" size="7255920" crc="14f7a9ac" md5="2a31020dc2c498143df0fc6b75a26d82" sha1="31775dfc6cf563c72d0f86a6124a4777d3d553e4" />
<rom name="Action Replay - Premium CD 2 (Japan) (Track 18).bin" size="7255920" crc="496dc974" md5="4af7c3192621e29907628acd939b6e63" sha1="0bb17bb026b52c1a686d903e976f8d5e3ed8c2cd" />
<rom name="Action Replay - Premium CD 2 (Japan) (Track 19).bin" size="7255920" crc="46250f59" md5="9642dd1ebd8415e61dfb88321b6aadf6" sha1="f59c1c47a64d1b81a0ffb3a2a99f09fefd8344ea" />
<rom name="Action Replay - Premium CD 2 (Japan) (Track 20).bin" size="8563632" crc="f679945a" md5="e07b380df70e74f04fc1bbcfacdf810d" sha1="a9fd510335c8b6a0ee9d197d1087c11dcfcfde51" />
<rom name="Action Replay - Premium CD 2 (Japan) (Track 21).bin" size="5950560" crc="6e201fa8" md5="3bac0642441381e61a0b3c72d9d3dbd0" sha1="c1c06e0c6c785ab58ef53ceb49181de044029ee0" />
<rom name="Action Replay - Premium CD 2 (Japan) (Track 22).bin" size="7672224" crc="11201d40" md5="8794144cd7d3a435e78ba440366afd92" sha1="a6d625f3d60ea7c5973bff46ea9376f413e9dc1c" />
<rom name="Action Replay - Premium CD 2 (Japan) (Track 23).bin" size="3504480" crc="35ec6d13" md5="c4382d2b1a225d872363d2a4c32ec67c" sha1="8b837228062e8151f9696d7e1f6fd15b1dc03183" />
<rom name="Action Replay - Premium CD 2 (Japan) (Track 24).bin" size="3873744" crc="55ce5c8e" md5="cc634e6d662736f1d9cb61ec01ac5500" sha1="ca367acc7b064be87fff06093994f018944dda9a" />
<rom name="Action Replay - Premium CD 2 (Japan) (Track 25).bin" size="3991344" crc="d5a4feb3" md5="6e7082545f359da4e0b77167e70fefa9" sha1="ac3788ccae0b5a69c038e7f317e8c476521b6c0f" />
<rom name="Action Replay - Premium CD 2 (Japan) (Track 26).bin" size="4228896" crc="01f1678c" md5="ec14d48f386af72d57434b2521f18baa" sha1="57d411ee8ea75093692483d1eee0288af7c3da9a" />
<rom name="Action Replay - Premium CD 2 (Japan) (Track 27).bin" size="7255920" crc="b2cbad08" md5="d174ffe780f6ed17b0aa36a394df37ab" sha1="8dc9e3de55aaef0350306ab146cc1d5a1ed19fb6" />
<rom name="Action Replay - Premium CD 2 (Japan) (Track 28).bin" size="7255920" crc="3319d34d" md5="be05244247c691331f163a93cdea17dc" sha1="54b3b65cd6cef3f2bd4795a81472eb53d69402a1" />
<rom name="Action Replay - Premium CD 2 (Japan) (Track 29).bin" size="7255920" crc="34b7a1aa" md5="9beb6cfc694c59f5764d07329d67ec5e" sha1="68c5b1d5dc18373dcc147ed26e3343a9b22c3134" />
<rom name="Action Replay - Premium CD 2 (Japan) (Track 30).bin" size="4407648" crc="7586497c" md5="4dfd520760dd11b0b1c218cf108b3176" sha1="16795d9a12371a190e1bd892a4e17b7360049127" />
<rom name="Action Replay - Premium CD 2 (Japan) (Track 31).bin" size="3504480" crc="356157c6" md5="5a631b2687bb32762f84d583a54b1d09" sha1="57cff75e32d1324f2392039152eb77605be489ee" />
<rom name="Action Replay - Premium CD 2 (Japan) (Track 32).bin" size="7138320" crc="602a0a20" md5="255815f222d692f5cf90a0dab221da49" sha1="0bcea5930a5eaa63e7a42f09164a1ae6bc6b6f22" />
<rom name="Action Replay - Premium CD 2 (Japan) (Track 33).bin" size="3504480" crc="58085ce0" md5="c4048baf4aba360db58377df29bbbfc2" sha1="4931013254a71a2775f1e66d4701ec134244e104" />
<rom name="Action Replay - Premium CD 2 (Japan) (Track 34).bin" size="8443680" crc="46b9bf36" md5="90a382344caba45a03fbf8b6c6ac501c" sha1="2ca83c69ff9db9862643dafbd3def557b08be113" />
<rom name="Action Replay - Premium CD 2 (Japan) (Track 35).bin" size="8502480" crc="191092b8" md5="b8198fdc2f27298c934930515e0ff249" sha1="d91a3adad164c1dfcc3c987f341748ed87d252c4" />
<rom name="Action Replay - Premium CD 2 (Japan) (Track 36).bin" size="8443680" crc="1e954ee6" md5="743287fad9755a738205e6a50d417247" sha1="3f7dfc0039c0678a9e6f99dbde2018e1abb6f3c7" />
<rom name="Action Replay - Premium CD 2 (Japan) (Track 37).bin" size="8443680" crc="89e67d55" md5="c564843f9a6dadb152cef29dd9d5b63c" sha1="5d1dc0f731d6c6951e5c1d182a3d749c992406eb" />
<rom name="Action Replay - Premium CD 2 (Japan) (Track 38).bin" size="8502480" crc="3f38802b" md5="4ab338f7cfe808de9f1f18ac7981fa6f" sha1="8fc3011938f254c9d1b14532cc961fd71b69238b" />
<rom name="Action Replay - Premium CD 2 (Japan) (Track 39).bin" size="8443680" crc="79b853d1" md5="4dc86325f77b0ddec28b8a9e21e0e5c0" sha1="1f7bd14e0d1990b7c6a0bbced29a8915eceefce8" />
<rom name="Action Replay - Premium CD 2 (Japan) (Track 40).bin" size="8443680" crc="19dced30" md5="24bc5354fa329af35242ecb185c8f4a4" sha1="d62e8a2baf05ca788c2f498786ec1833a255eac6" />
<rom name="Action Replay - Premium CD 2 (Japan) (Track 41).bin" size="8502480" crc="185875c7" md5="ed86538e281083587876ad2c7ef5e98e" sha1="e972b3e80bb6c031a16fefcbe3b8ca60054c9ee7" />
<rom name="Action Replay - Premium CD 2 (Japan) (Track 42).bin" size="8443680" crc="4ea12575" md5="fa964d97af4db06dfec8039c1fe18025" sha1="76a750ef8a38389914bdac562e225d7d34140b4a" />
<rom name="Action Replay - Premium CD 2 (Japan) (Track 43).bin" size="8443680" crc="48dc4419" md5="19fd1ef3d3bd50d8a27f549e27894ee0" sha1="f1422a8ddb22d13c494315d911f67dd02674bb0d" />
<rom name="Action Replay - Premium CD 2 (Japan) (Track 44).bin" size="8502480" crc="7051e842" md5="4ba629778a6c38152cead12578a734d0" sha1="c535eed09017d1313d0881c0c3991f7f34776667" />
<rom name="Action Replay - Premium CD 2 (Japan) (Track 45).bin" size="8443680" crc="5dd8788e" md5="2d773dd798b6c3b73abbb56d4969de26" sha1="932a8c39753fb52503ec0189b5b857510645c309" />
<rom name="Action Replay - Premium CD 2 (Japan) (Track 46).bin" size="8443680" crc="33ce71df" md5="a086c5fb6b6b97c2e53f66ef0c570bfa" sha1="f17c7d811b6b6a9c018c88464019df04a78c5154" />
<rom name="Action Replay - Premium CD 2 (Japan) (Track 47).bin" size="8502480" crc="ad517d84" md5="37be4f8f17b6c24dc7cafca5da7b9d45" sha1="6666bf604ede63180e59a2327940e6f667edb171" />
<rom name="Action Replay - Premium CD 2 (Japan) (Track 48).bin" size="8443680" crc="af8cda1e" md5="426eb25625e2ea2a326b5ea21dac5b8e" sha1="5cfc0bc6d988282be18f216b3f9156e193198a35" />
<rom name="Action Replay - Premium CD 2 (Japan) (Track 49).bin" size="6900768" crc="aabe6160" md5="0158c7382a3869d62f9cfdd08688b5d3" sha1="aa99e34b55305bc5ed63dee561a67c81d5aaa69a" />
<rom name="Action Replay - Premium CD 2 (Japan) (Track 50).bin" size="6604416" crc="b9f0cfac" md5="fd6e1c8e0c33464221a2035090ba9821" sha1="80803dc34b0d317017207abc6a8349953f7eafe7" />

    Cuesheet:

FILE "Action Replay - Premium CD 2 (Japan) (Track 01).bin" BINARY
  TRACK 01 AUDIO
    INDEX 01 00:00:00
FILE "Action Replay - Premium CD 2 (Japan) (Track 02).bin" BINARY
  TRACK 02 AUDIO
    INDEX 00 00:00:00
    INDEX 01 00:02:00
FILE "Action Replay - Premium CD 2 (Japan) (Track 03).bin" BINARY
  TRACK 03 AUDIO
    INDEX 00 00:00:00
    INDEX 01 00:02:00
FILE "Action Replay - Premium CD 2 (Japan) (Track 04).bin" BINARY
  TRACK 04 AUDIO
    INDEX 00 00:00:00
    INDEX 01 00:02:00
FILE "Action Replay - Premium CD 2 (Japan) (Track 05).bin" BINARY
  TRACK 05 AUDIO
    INDEX 00 00:00:00
    INDEX 01 00:02:00
FILE "Action Replay - Premium CD 2 (Japan) (Track 06).bin" BINARY
  TRACK 06 AUDIO
    INDEX 00 00:00:00
    INDEX 01 00:02:00
FILE "Action Replay - Premium CD 2 (Japan) (Track 07).bin" BINARY
  TRACK 07 AUDIO
    INDEX 00 00:00:00
    INDEX 01 00:02:00
FILE "Action Replay - Premium CD 2 (Japan) (Track 08).bin" BINARY
  TRACK 08 AUDIO
    INDEX 00 00:00:00
    INDEX 01 00:02:00
FILE "Action Replay - Premium CD 2 (Japan) (Track 09).bin" BINARY
  TRACK 09 AUDIO
    INDEX 00 00:00:00
    INDEX 01 00:02:00
FILE "Action Replay - Premium CD 2 (Japan) (Track 10).bin" BINARY
  TRACK 10 AUDIO
    INDEX 00 00:00:00
    INDEX 01 00:02:00
FILE "Action Replay - Premium CD 2 (Japan) (Track 11).bin" BINARY
  TRACK 11 AUDIO
    INDEX 00 00:00:00
    INDEX 01 00:02:00
FILE "Action Replay - Premium CD 2 (Japan) (Track 12).bin" BINARY
  TRACK 12 AUDIO
    INDEX 00 00:00:00
    INDEX 01 00:02:00
FILE "Action Replay - Premium CD 2 (Japan) (Track 13).bin" BINARY
  TRACK 13 AUDIO
    INDEX 00 00:00:00
    INDEX 01 00:02:00
FILE "Action Replay - Premium CD 2 (Japan) (Track 14).bin" BINARY
  TRACK 14 AUDIO
    INDEX 00 00:00:00
    INDEX 01 00:02:00
FILE "Action Replay - Premium CD 2 (Japan) (Track 15).bin" BINARY
  TRACK 15 AUDIO
    INDEX 00 00:00:00
    INDEX 01 00:02:00
FILE "Action Replay - Premium CD 2 (Japan) (Track 16).bin" BINARY
  TRACK 16 AUDIO
    INDEX 00 00:00:00
    INDEX 01 00:02:00
FILE "Action Replay - Premium CD 2 (Japan) (Track 17).bin" BINARY
  TRACK 17 AUDIO
    INDEX 00 00:00:00
    INDEX 01 00:02:00
FILE "Action Replay - Premium CD 2 (Japan) (Track 18).bin" BINARY
  TRACK 18 AUDIO
    INDEX 00 00:00:00
    INDEX 01 00:02:00
FILE "Action Replay - Premium CD 2 (Japan) (Track 19).bin" BINARY
  TRACK 19 AUDIO
    INDEX 00 00:00:00
    INDEX 01 00:02:00
FILE "Action Replay - Premium CD 2 (Japan) (Track 20).bin" BINARY
  TRACK 20 AUDIO
    INDEX 00 00:00:00
    INDEX 01 00:02:00
FILE "Action Replay - Premium CD 2 (Japan) (Track 21).bin" BINARY
  TRACK 21 AUDIO
    INDEX 00 00:00:00
    INDEX 01 00:02:00
FILE "Action Replay - Premium CD 2 (Japan) (Track 22).bin" BINARY
  TRACK 22 AUDIO
    INDEX 00 00:00:00
    INDEX 01 00:02:00
FILE "Action Replay - Premium CD 2 (Japan) (Track 23).bin" BINARY
  TRACK 23 AUDIO
    INDEX 00 00:00:00
    INDEX 01 00:02:00
FILE "Action Replay - Premium CD 2 (Japan) (Track 24).bin" BINARY
  TRACK 24 AUDIO
    INDEX 00 00:00:00
    INDEX 01 00:02:00
FILE "Action Replay - Premium CD 2 (Japan) (Track 25).bin" BINARY
  TRACK 25 AUDIO
    INDEX 00 00:00:00
    INDEX 01 00:02:00
FILE "Action Replay - Premium CD 2 (Japan) (Track 26).bin" BINARY
  TRACK 26 AUDIO
    INDEX 00 00:00:00
    INDEX 01 00:02:00
FILE "Action Replay - Premium CD 2 (Japan) (Track 27).bin" BINARY
  TRACK 27 AUDIO
    INDEX 00 00:00:00
    INDEX 01 00:02:00
FILE "Action Replay - Premium CD 2 (Japan) (Track 28).bin" BINARY
  TRACK 28 AUDIO
    INDEX 00 00:00:00
    INDEX 01 00:02:00
FILE "Action Replay - Premium CD 2 (Japan) (Track 29).bin" BINARY
  TRACK 29 AUDIO
    INDEX 00 00:00:00
    INDEX 01 00:02:00
FILE "Action Replay - Premium CD 2 (Japan) (Track 30).bin" BINARY
  TRACK 30 AUDIO
    INDEX 00 00:00:00
    INDEX 01 00:02:00
FILE "Action Replay - Premium CD 2 (Japan) (Track 31).bin" BINARY
  TRACK 31 AUDIO
    INDEX 00 00:00:00
    INDEX 01 00:02:00
FILE "Action Replay - Premium CD 2 (Japan) (Track 32).bin" BINARY
  TRACK 32 AUDIO
    INDEX 00 00:00:00
    INDEX 01 00:02:00
FILE "Action Replay - Premium CD 2 (Japan) (Track 33).bin" BINARY
  TRACK 33 AUDIO
    INDEX 00 00:00:00
    INDEX 01 00:02:00
FILE "Action Replay - Premium CD 2 (Japan) (Track 34).bin" BINARY
  TRACK 34 AUDIO
    INDEX 00 00:00:00
    INDEX 01 00:02:00
FILE "Action Replay - Premium CD 2 (Japan) (Track 35).bin" BINARY
  TRACK 35 AUDIO
    INDEX 00 00:00:00
    INDEX 01 00:02:00
FILE "Action Replay - Premium CD 2 (Japan) (Track 36).bin" BINARY
  TRACK 36 AUDIO
    INDEX 00 00:00:00
    INDEX 01 00:02:00
FILE "Action Replay - Premium CD 2 (Japan) (Track 37).bin" BINARY
  TRACK 37 AUDIO
    INDEX 00 00:00:00
    INDEX 01 00:02:00
FILE "Action Replay - Premium CD 2 (Japan) (Track 38).bin" BINARY
  TRACK 38 AUDIO
    INDEX 00 00:00:00
    INDEX 01 00:02:00
FILE "Action Replay - Premium CD 2 (Japan) (Track 39).bin" BINARY
  TRACK 39 AUDIO
    INDEX 00 00:00:00
    INDEX 01 00:02:00
FILE "Action Replay - Premium CD 2 (Japan) (Track 40).bin" BINARY
  TRACK 40 AUDIO
    INDEX 00 00:00:00
    INDEX 01 00:02:00
FILE "Action Replay - Premium CD 2 (Japan) (Track 41).bin" BINARY
  TRACK 41 AUDIO
    INDEX 00 00:00:00
    INDEX 01 00:02:00
FILE "Action Replay - Premium CD 2 (Japan) (Track 42).bin" BINARY
  TRACK 42 AUDIO
    INDEX 00 00:00:00
    INDEX 01 00:02:00
FILE "Action Replay - Premium CD 2 (Japan) (Track 43).bin" BINARY
  TRACK 43 AUDIO
    INDEX 00 00:00:00
    INDEX 01 00:02:00
FILE "Action Replay - Premium CD 2 (Japan) (Track 44).bin" BINARY
  TRACK 44 AUDIO
    INDEX 00 00:00:00
    INDEX 01 00:02:00
FILE "Action Replay - Premium CD 2 (Japan) (Track 45).bin" BINARY
  TRACK 45 AUDIO
    INDEX 00 00:00:00
    INDEX 01 00:02:00
FILE "Action Replay - Premium CD 2 (Japan) (Track 46).bin" BINARY
  TRACK 46 AUDIO
    INDEX 00 00:00:00
    INDEX 01 00:02:00
FILE "Action Replay - Premium CD 2 (Japan) (Track 47).bin" BINARY
  TRACK 47 AUDIO
    INDEX 00 00:00:00
    INDEX 01 00:02:00
FILE "Action Replay - Premium CD 2 (Japan) (Track 48).bin" BINARY
  TRACK 48 AUDIO
    INDEX 00 00:00:00
    INDEX 01 00:02:00
FILE "Action Replay - Premium CD 2 (Japan) (Track 49).bin" BINARY
  TRACK 49 AUDIO
    INDEX 00 00:00:00
    INDEX 01 00:02:00
FILE "Action Replay - Premium CD 2 (Japan) (Track 50).bin" BINARY
  TRACK 50 AUDIO
    INDEX 00 00:00:00
    INDEX 01 00:02:00

    Write Offset: 0