Match: http://redump.org/disc/38944/
Logs: https://drive.google.com/open?id=1Ffc-- … TmlFFZhuMP

Common Disc Info:
    Title: Dark Reign: The Future of War
    Foreign Title (Non-latin): 
    Disc Number / Letter: (OPTIONAL)
    Disc Title: (OPTIONAL)
    System: IBM PC Compatible
    Media Type: CD-ROM
    Category: Games
    Matching IDs: 38944
    Region: Europe
    Languages: English
    Disc Serial: CDD-3920-101-UK

    Ringcode Information:
        Mastering Code (laser branded/etched): SONOPRESS ROMM T-4036 A
        Mastering SID Code: IFPI L030
        Data-Side Mould SID Code: IFPI 0722
        Label-Side Mould SID Code: (REQUIRED, IF EXISTS)
        Additional Mould: (REQUIRED, IF EXISTS)
        Toolstamp or Mastering Code (engraved/stamped): (REQUIRED, IF EXISTS)
    Barcode: 
    Error Count: 0
    Comments: [T:ISBN] (OPTIONAL)
    Contents: (OPTIONAL)

Version and Editions:
    Version: (REQUIRED, IF EXISTS)
    Edition/Release: Original

Extras:
    Primary Volume Descriptor (PVD):

0320 : 20 20 20 20 20 20 20 20  20 20 20 20 20 30 30 30                000
0330 : 30 30 30 30 30 30 30 30  30 30 30 30 30 00 30 30   0000000000000.00
0340 : 30 30 30 30 30 30 30 30  30 30 30 30 30 30 00 30   00000000000000.0
0350 : 30 30 30 30 30 30 30 30  30 30 30 30 30 30 30 00   000000000000000.
0360 : 30 30 30 30 30 30 30 30  30 30 30 30 30 30 30 30   0000000000000000
0370 : 00 01 00 00 00 00 00 00  00 00 00 00 00 00 00 00   ................

Copy Protection:
    Copy Protection: 

Tracks and Write Offsets:
    DAT:

<rom name="DKREIGN (Track 1).bin" size="355688256" crc="617a2cc0" md5="4bc3679d37a302f755bb92e57c2802cd" sha1="748e6409eb1a269f4d8335bbb552fc2f45dfb07c" />
<rom name="DKREIGN (Track 2).bin" size="42935760" crc="80662bdb" md5="6eb1a5595b9314c17ffb28d7ca1189e6" sha1="74130524310a3e44c0b9bdd751ada3c79da95315" />
<rom name="DKREIGN (Track 3).bin" size="44391648" crc="05ac78c2" md5="572fff6106cafbd43992441b63903a46" sha1="e573f7b1b069972fc1dea32b7712952b758d20db" />
<rom name="DKREIGN (Track 4).bin" size="44017680" crc="c337901d" md5="b979148261e581bf7332795d9661fcc3" sha1="690bc1dac77c85d53e6bdcf89335eb7a3cec14cd" />
<rom name="DKREIGN (Track 5).bin" size="44020032" crc="12bc1d60" md5="39b61f3a546939d156c14ef9a3141bf9" sha1="9966318942fbf6f376ae83cee2e3a77f0caf326c" />
<rom name="DKREIGN (Track 6).bin" size="43401456" crc="59fc0ef7" md5="3e8afa9e1f9a5a9adbb7b62ac6c1d430" sha1="2c0e60cb6fc8a7f3fef066bd51dee5ffc81cbb09" />
<rom name="DKREIGN (Track 7).bin" size="43782480" crc="c281b396" md5="32bf7293814d5660d169a3965577fe3a" sha1="e4ffdb7e8ac05755aa3648e2d600ee44bbdc1a18" />
<rom name="DKREIGN (Track 8).bin" size="42601776" crc="41480026" md5="14fddbeacf16b8a4623457b6014c496c" sha1="222dc5a383123a45f140c64ce7b898790b9ea3a9" />
<rom name="DKREIGN (Track 9).bin" size="43488480" crc="c824d6cc" md5="3b0330d377db41861053087d1704da83" sha1="c681fa9077b1924e7efcb614e59ff161e2313153" />

    Cuesheet:

CATALOG 0000000000000
FILE "DKREIGN (Track 1).bin" BINARY
  TRACK 01 MODE1/2352
    INDEX 01 00:00:00
FILE "DKREIGN (Track 2).bin" BINARY
  TRACK 02 AUDIO
    INDEX 00 00:00:00
    INDEX 01 00:02:00
FILE "DKREIGN (Track 3).bin" BINARY
  TRACK 03 AUDIO
    INDEX 00 00:00:00
    INDEX 01 00:02:00
FILE "DKREIGN (Track 4).bin" BINARY
  TRACK 04 AUDIO
    INDEX 00 00:00:00
    INDEX 01 00:02:00
FILE "DKREIGN (Track 5).bin" BINARY
  TRACK 05 AUDIO
    INDEX 00 00:00:00
    INDEX 01 00:02:00
FILE "DKREIGN (Track 6).bin" BINARY
  TRACK 06 AUDIO
    INDEX 00 00:00:00
    INDEX 01 00:02:00
FILE "DKREIGN (Track 7).bin" BINARY
  TRACK 07 AUDIO
    INDEX 00 00:00:00
    INDEX 01 00:02:00
FILE "DKREIGN (Track 8).bin" BINARY
  TRACK 08 AUDIO
    INDEX 00 00:00:00
    INDEX 01 00:02:00
FILE "DKREIGN (Track 9).bin" BINARY
  TRACK 09 AUDIO
    INDEX 00 00:00:00
    INDEX 01 00:02:00

    Write Offset: 0