Match: http://redump.org/disc/11352/
Logs: https://drive.google.com/open?id=1pKOwi … IbPKK-V1m5

Common Disc Info:
    Title: Little Big Adventure
    Foreign Title (Non-latin): 
    Disc Number / Letter: (OPTIONAL)
    Disc Title: (OPTIONAL)
    System: IBM PC Compatible
    Media Type: CD-ROM
    Category: Games
    Matching IDs: 11352
    Region: Europe
    Languages: English, French, German, Italian, Spanish
    Disc Serial: E3165CXD

    Ringcode Information:
        Mastering Code (laser branded/etched): L.B.A.    25 NOV 94    MPO     04 @@@ 1
        Mastering SID Code: (REQUIRED, IF EXISTS)
        Data-Side Mould SID Code: (REQUIRED, IF EXISTS)
        Label-Side Mould SID Code: (REQUIRED, IF EXISTS)
        Additional Mould: (REQUIRED, IF EXISTS)
        Toolstamp or Mastering Code (engraved/stamped): (REQUIRED, IF EXISTS)
    Barcode: 
    Error Count: 0
    Comments: 
    Contents: (OPTIONAL)

Version and Editions:
    Version: 1.0
    Edition/Release: Original

Extras:
    Primary Volume Descriptor (PVD):

0320 : 20 20 20 20 20 20 20 20  20 20 20 20 20 31 39 39                199
0330 : 34 31 31 31 35 31 31 31  35 30 30 30 30 30 31 39   4111511150000019
0340 : 39 34 31 31 31 35 31 32  31 35 30 30 30 30 30 30   9411151215000000
0350 : 30 30 30 30 30 30 30 30  30 30 30 30 30 30 30 30   0000000000000000
0360 : 31 39 39 34 31 31 31 35  31 31 31 35 30 30 30 30   1994111511150000
0370 : 30 01 00 00 00 00 00 00  00 00 00 00 00 00 00 00   0...............

Copy Protection:
    Copy Protection: None found

Tracks and Write Offsets:
    DAT:

<rom name="ADELINE (Track 01).bin" size="232916208" crc="1ce451f0" md5="6651c02ddfb8a88f4791ab20a19d8ca0" sha1="e78fee5718f94f9340f238ed5b9bd450f40cbb86" />
<rom name="ADELINE (Track 02).bin" size="33922896" crc="807b0912" md5="6f1817a6f39483eb065707043deab317" sha1="b84236f7c2c2cbc04bfe05bced0610406ab4e7eb" />
<rom name="ADELINE (Track 03).bin" size="31789632" crc="ca350d82" md5="da36551aae338afcddf6f0b1969b3ffe" sha1="940ae734cb65f5f39e4f26b10d24e302c04ee745" />
<rom name="ADELINE (Track 04).bin" size="26869248" crc="70aa086c" md5="7d38793362f01073d68a6ed54f6883f3" sha1="6578c89bb8a5a655c0c95709d7be65a1f0a6c0d6" />
<rom name="ADELINE (Track 05).bin" size="29604624" crc="f9c3d5ac" md5="710efbada81c743d20870343b27213b8" sha1="5df7004197b3823fb040089e0efb4df0e537a23d" />
<rom name="ADELINE (Track 06).bin" size="29449392" crc="2cb0b151" md5="74a5887b0d1d17ba938807629d6ee502" sha1="1f6f5358e7a9b55f7a414b6e3201a37c3caa9720" />
<rom name="ADELINE (Track 07).bin" size="17376576" crc="b1fbd8e7" md5="188c11491b130b9f59a4166b282e4ed9" sha1="bfaff79ef7244a811b14c198e582898ab155a721" />
<rom name="ADELINE (Track 08).bin" size="39003216" crc="b0ce9d35" md5="b246e2cd39e6d825a378f80ee823c048" sha1="c24e9b1d5f35c68cce50a436533a72c9bb7bf384" />
<rom name="ADELINE (Track 09).bin" size="16882656" crc="f79c367e" md5="27225c238eeee52ba3c1aa004314514a" sha1="db070deedcc33461b9b7dd77a8a1a0d666a245d4" />
<rom name="ADELINE (Track 10).bin" size="41827968" crc="30d92ed2" md5="5522ffbf01ee430e81959620fccc6a4f" sha1="9d57061bcac271d3b383ce6ce68ebebfa6a4db9e" />

    Cuesheet:

CATALOG 0000000000000
FILE "ADELINE (Track 01).bin" BINARY
  TRACK 01 MODE1/2352
    INDEX 01 00:00:00
FILE "ADELINE (Track 02).bin" BINARY
  TRACK 02 AUDIO
    INDEX 00 00:00:00
    INDEX 01 00:02:01
FILE "ADELINE (Track 03).bin" BINARY
  TRACK 03 AUDIO
    INDEX 00 00:00:00
    INDEX 01 00:02:00
FILE "ADELINE (Track 04).bin" BINARY
  TRACK 04 AUDIO
    INDEX 00 00:00:00
    INDEX 01 00:02:00
FILE "ADELINE (Track 05).bin" BINARY
  TRACK 05 AUDIO
    INDEX 00 00:00:00
    INDEX 01 00:02:00
FILE "ADELINE (Track 06).bin" BINARY
  TRACK 06 AUDIO
    INDEX 00 00:00:00
    INDEX 01 00:02:00
FILE "ADELINE (Track 07).bin" BINARY
  TRACK 07 AUDIO
    INDEX 00 00:00:00
    INDEX 01 00:02:00
FILE "ADELINE (Track 08).bin" BINARY
  TRACK 08 AUDIO
    INDEX 00 00:00:00
    INDEX 01 00:02:00
FILE "ADELINE (Track 09).bin" BINARY
  TRACK 09 AUDIO
    INDEX 00 00:00:00
    INDEX 01 00:02:00
FILE "ADELINE (Track 10).bin" BINARY
  TRACK 10 AUDIO
    INDEX 00 00:00:00
    INDEX 01 00:02:00

    Write Offset: 0