Match: http://redump.org/disc/8989/
Logs: https://drive.google.com/open?id=1X9Y7z … ov94Ua1qzA

Common Disc Info:
    Title: Sega Rally Championship PC
    Foreign Title (Non-latin): 
    Disc Number / Letter: (OPTIONAL)
    Disc Title: (OPTIONAL)
    System: IBM PC Compatible
    Media Type: CD-ROM
    Category: Games
    Matching IDs: 8989
    Region: Europe
    Languages: English
    Disc Serial: MK 85048-50

    Ringcode Information:
        Mastering Code (laser branded/etched): ·MASTERED BY NIMBUS·    CDD14852 MK-85048-50    :·
        Mastering SID Code: IFPI L123
        Data-Side Mould SID Code: IFPI 2322
        Label-Side Mould SID Code: (REQUIRED, IF EXISTS)
        Additional Mould: (REQUIRED, IF EXISTS)
        Toolstamp or Mastering Code (engraved/stamped): 1:2
    Barcode: 4 974365 850487 >
    Error Count: 0
    Comments: <b>Sega ID</b>: 680-6051-50
    Contents: (OPTIONAL)

Version and Editions:
    Version: 1.0
    Edition/Release: Original

Extras:
    Primary Volume Descriptor (PVD):

0320 : 20 20 20 20 20 20 20 20  20 20 20 20 20 31 39 39                199
0330 : 36 31 32 31 31 32 30 30  33 31 38 30 30 DC 31 39   6121120031800.19
0340 : 39 36 31 32 31 31 32 30  30 33 31 38 30 30 DC 30   96121120031800.0
0350 : 30 30 30 30 30 30 30 30  30 30 30 30 30 30 30 00   000000000000000.
0360 : 30 30 30 30 30 30 30 30  30 30 30 30 30 30 30 30   0000000000000000
0370 : 00 01 00 00 00 00 00 00  00 00 00 00 00 00 00 00   ................

Copy Protection:
    Copy Protection: 

Tracks and Write Offsets:
    DAT:

<rom name="SRALLY (Track 01).bin" size="82371744" crc="b0bc882c" md5="4afad81d6f8294bf4885e26034bdee91" sha1="9135eb202f8d7fba5969fe5dff6f17906bdcf8e2" />
<rom name="SRALLY (Track 02).bin" size="10910928" crc="5dca1538" md5="73e334f22a3dd1cadc17d8764e5a07d7" sha1="f087b04a800216d9329e45e78093ec73fc9dae07" />
<rom name="SRALLY (Track 03).bin" size="41531616" crc="7f882471" md5="886a8ed4a1b989b3e5562ce82f5a3c1d" sha1="1cd1fbc91724c78ea2b267c7b173b0dd1feea877" />
<rom name="SRALLY (Track 04).bin" size="35924448" crc="bc2c4768" md5="f85e5b4be9ac71487d803f46e7021005" sha1="d330f707353a20ae74583c62124142195c637b74" />
<rom name="SRALLY (Track 05).bin" size="27664224" crc="9048b216" md5="b316c1c777e384c6f8c8024a83e133c5" sha1="f95a7721dee5692b5e7c303823aeff5e798eb92b" />
<rom name="SRALLY (Track 06).bin" size="32638704" crc="e545c9b5" md5="ecf3fe4c4bd01f30f13d32a10cbfbecd" sha1="9a26f5ab2d3a919c2092d4b9441950c7fe99cf6b" />
<rom name="SRALLY (Track 07).bin" size="28706160" crc="f93684e7" md5="2fa00bb871aca077312ba3aef2a58045" sha1="21636c767631517db162b506948fccd01fcc092a" />
<rom name="SRALLY (Track 08).bin" size="48415920" crc="eb78b7ed" md5="c087287ce0f49578fcf350efc16cb0e4" sha1="01247f9a130f0226feb56a1bb621b17aec528d08" />
<rom name="SRALLY (Track 09).bin" size="45050208" crc="b0826481" md5="674719cc6b13ab5cbb686d65ae3b4f2d" sha1="e013f2eb32471ff9ef5a57c5e39ccb7dedabdde6" />
<rom name="SRALLY (Track 10).bin" size="50593872" crc="10bb3a08" md5="352292b5d18a2ad852455184b31f5a9d" sha1="d7a044e15e45fe5800786b267636bf8efa431caa" />
<rom name="SRALLY (Track 11).bin" size="53289264" crc="ae02de9d" md5="2ea51a0b68501fb4908edae07b5df58d" sha1="e90d8fefc05301a86e90de84ae9cfc28a0d58821" />
<rom name="SRALLY (Track 12).bin" size="45953376" crc="61adec02" md5="d60077544353f7f5b44ffae7d6bfc682" sha1="1840c626ccbc2ee89faf848849551a94ba4b959c" />
<rom name="SRALLY (Track 13).bin" size="11847024" crc="b8d256cc" md5="77ba8f9d8e21dd5dfbb886ed4de6087b" sha1="d5a6241426ad0878a50b17b5d5b06f8e8e0d8ccc" />
<rom name="SRALLY (Track 14).bin" size="2488416" crc="f35ec352" md5="b47223bf31335b7c1ab58895af371c1f" sha1="21a7d20bf2200c890fa8d40f6edc8b94fb5b28e2" />
<rom name="SRALLY (Track 15).bin" size="2573088" crc="5aa33b3c" md5="9984ba0e831eac4aac734fbab3e700e4" sha1="995902c2101f3b9f03cfb3ae3af448893b7c5c2b" />
<rom name="SRALLY (Track 16).bin" size="2349648" crc="3d8ea535" md5="e1cf56cd23415bb4f8f16dfc6dfb3a24" sha1="68d87d3ee7f70c472ff10f89070d40407ed70598" />
<rom name="SRALLY (Track 17).bin" size="2657760" crc="c2d07de4" md5="4ee3ffc150d8898f9d804cf2f31f052c" sha1="b0a632d706506f7aa3d6e575c60522e48098d58b" />
<rom name="SRALLY (Track 18).bin" size="11917584" crc="0bc29eb7" md5="488b7bb94e721b1c5907149adda36dfb" sha1="a2bf55f404b5e024074f12b24095fd9118448893" />
<rom name="SRALLY (Track 19).bin" size="32469360" crc="d1d487aa" md5="388a97caac7bf459e97be002c50b30e7" sha1="b7ec6b9ee524a32785e644899339e4a173960c6e" />
<rom name="SRALLY (Track 20).bin" size="55192032" crc="1a1fdd49" md5="3aba9cdc3dcef1688096e638202f7074" sha1="b2d0b5d08667bec270353a518df1e5f58420cb89" />
<rom name="SRALLY (Track 21).bin" size="11891712" crc="604fdade" md5="ee365139c4cdde836ddc52d356afa46b" sha1="87915043df441f79c7cdf2fb3b4068caace015af" />
<rom name="SRALLY (Track 22).bin" size="12540864" crc="78c0d7ff" md5="00ad749a9f38cf14568e99827be82333" sha1="fdb3aac51f00a7b2afe71bfefdbde39534a9f5a8" />
<rom name="SRALLY (Track 23).bin" size="4370016" crc="7ff2a0c6" md5="3537f46824d019348f2fe65edde5a845" sha1="86133fd47024f9e25ae922d2c7ecea2ceb135761" />

    Cuesheet:

CATALOG 0000000000000
FILE "SRALLY (Track 01).bin" BINARY
  TRACK 01 MODE1/2352
    INDEX 01 00:00:00
FILE "SRALLY (Track 02).bin" BINARY
  TRACK 02 AUDIO
    INDEX 00 00:00:00
    INDEX 01 00:02:00
FILE "SRALLY (Track 03).bin" BINARY
  TRACK 03 AUDIO
    INDEX 01 00:00:00
FILE "SRALLY (Track 04).bin" BINARY
  TRACK 04 AUDIO
    INDEX 01 00:00:00
FILE "SRALLY (Track 05).bin" BINARY
  TRACK 05 AUDIO
    INDEX 01 00:00:00
FILE "SRALLY (Track 06).bin" BINARY
  TRACK 06 AUDIO
    INDEX 01 00:00:00
FILE "SRALLY (Track 07).bin" BINARY
  TRACK 07 AUDIO
    INDEX 01 00:00:00
FILE "SRALLY (Track 08).bin" BINARY
  TRACK 08 AUDIO
    INDEX 01 00:00:00
FILE "SRALLY (Track 09).bin" BINARY
  TRACK 09 AUDIO
    INDEX 01 00:00:00
FILE "SRALLY (Track 10).bin" BINARY
  TRACK 10 AUDIO
    INDEX 01 00:00:00
FILE "SRALLY (Track 11).bin" BINARY
  TRACK 11 AUDIO
    INDEX 01 00:00:00
FILE "SRALLY (Track 12).bin" BINARY
  TRACK 12 AUDIO
    INDEX 01 00:00:00
FILE "SRALLY (Track 13).bin" BINARY
  TRACK 13 AUDIO
    INDEX 01 00:00:00
FILE "SRALLY (Track 14).bin" BINARY
  TRACK 14 AUDIO
    INDEX 01 00:00:00
FILE "SRALLY (Track 15).bin" BINARY
  TRACK 15 AUDIO
    INDEX 01 00:00:00
FILE "SRALLY (Track 16).bin" BINARY
  TRACK 16 AUDIO
    INDEX 01 00:00:00
FILE "SRALLY (Track 17).bin" BINARY
  TRACK 17 AUDIO
    INDEX 01 00:00:00
FILE "SRALLY (Track 18).bin" BINARY
  TRACK 18 AUDIO
    INDEX 01 00:00:00
FILE "SRALLY (Track 19).bin" BINARY
  TRACK 19 AUDIO
    INDEX 01 00:00:00
FILE "SRALLY (Track 20).bin" BINARY
  TRACK 20 AUDIO
    INDEX 01 00:00:00
FILE "SRALLY (Track 21).bin" BINARY
  TRACK 21 AUDIO
    INDEX 01 00:00:00
FILE "SRALLY (Track 22).bin" BINARY
  TRACK 22 AUDIO
    INDEX 01 00:00:00
FILE "SRALLY (Track 23).bin" BINARY
  TRACK 23 AUDIO
    INDEX 01 00:00:00

    Write Offset: 0