Match: http://redump.org/disc/27596/
Logs: https://drive.google.com/open?id=1tuqUy … CkycN4rz3U

Common Disc Info:
    Title: Mortal Kombat 4
    Foreign Title (Non-latin): 
    Disc Number / Letter: (OPTIONAL)
    Disc Title: (OPTIONAL)
    System: IBM PC Compatible
    Media Type: CD-ROM
    Category: Games
    Matching IDs: 27596
    Region: Europe
    Languages: English
    Disc Serial: VFC 05252

    Ringcode Information:
        Mastering Code (laser branded/etched): DADC AUSTRIA    A0100255923-0101    14
        Mastering SID Code: IFPI L554
        Data-Side Mould SID Code: IFPI 94Y5
        Label-Side Mould SID Code: (REQUIRED, IF EXISTS)
        Additional Mould: (REQUIRED, IF EXISTS)
        Toolstamp or Mastering Code (engraved/stamped): A2
    Barcode: 5 029988 005017 >
    Error Count: 0
    Comments: [T:ISBN] (OPTIONAL)
    Contents: (OPTIONAL)

Version and Editions:
    Version: (REQUIRED, IF EXISTS)
    Edition/Release: Original

Extras:
    Primary Volume Descriptor (PVD):

0320 : 20 20 20 20 20 20 20 20  20 20 20 20 20 31 39 39                199
0330 : 38 30 37 31 33 31 31 32  36 30 36 30 30 00 31 39   8071311260600.19
0340 : 39 38 30 37 31 33 31 31  32 36 30 36 30 30 00 32   98071311260600.2
0350 : 30 30 38 30 37 31 30 31  31 32 36 30 36 30 30 00   008071011260600.
0360 : 31 39 39 38 30 37 31 33  31 31 32 36 30 36 30 30   1998071311260600
0370 : 00 01 00 00 00 00 00 00  00 00 00 00 00 00 00 00   ................

Copy Protection:
    Copy Protection: 

Tracks and Write Offsets:
    DAT:

<rom name="MK4 (Track 01).bin" size="333781728" crc="bacb51aa" md5="9bda45bb3a1ad3383fb532e3539c1fa7" sha1="7262034ad2a2c839cdf7babdcf50bbccf858de93" />
<rom name="MK4 (Track 02).bin" size="16593360" crc="6c8d4473" md5="281b9d1f5768788453f91a371498f8d5" sha1="21b4706a8a2753c2275b0abedad6569157246176" />
<rom name="MK4 (Track 03).bin" size="16593360" crc="96efbcf2" md5="1682b3a838c369254d45a6d3b444de85" sha1="9491661a1de946a18e25b361ef0d50ddfbbf9d14" />
<rom name="MK4 (Track 04).bin" size="16593360" crc="78432f05" md5="e7a926aac94a47b510356be01029d71b" sha1="0832e3e37395f47d1d28ffe78929f6b265024aa0" />
<rom name="MK4 (Track 05).bin" size="16593360" crc="33ba6e9e" md5="fe9e7eaa75e6bd3fbcac5288502e5fbd" sha1="9ea87e47cb059682c7b7a0e5140a0f4ebff49e9b" />
<rom name="MK4 (Track 06).bin" size="16588656" crc="48812e06" md5="430e55d8ace92f3298cd92ff73001071" sha1="693dc12fb71c545cc9f80e0d6c0358202abd7700" />
<rom name="MK4 (Track 07).bin" size="16593360" crc="f755e98f" md5="26711274df6d412a1fed4dab22aa916f" sha1="27d9233e1460cbaf8b5083588ecd8459cdb49659" />
<rom name="MK4 (Track 08).bin" size="16593360" crc="bfe2b360" md5="89087d0a9fb9fc8f426fb78ae19219e7" sha1="9d3fe894d4754b35c1a8e712432cac7bbce53a7f" />
<rom name="MK4 (Track 09).bin" size="21883008" crc="e4bb9da3" md5="11f798bb147402cae86345ddcc9a97ea" sha1="4c02c0579a931d79ad2574068f0c465eea492349" />
<rom name="MK4 (Track 10).bin" size="3299856" crc="354b11de" md5="eb1f0d68621c0e4b17aff016da6454a4" sha1="e9cbac51a72f25d161d87edd2182079579404b13" />
<rom name="MK4 (Track 11).bin" size="10238256" crc="5305d054" md5="dac3c71af450e07a4371ece07e58bde1" sha1="692ec3ecc4e04f2a888201606c5c51410fccad89" />
<rom name="MK4 (Track 12).bin" size="16593360" crc="dff997e4" md5="c5a5e134b701f2ae6ee3136a29d450f9" sha1="e99a2b578b3e6b4cbf6c428e2bdedfc88cd943bd" />
<rom name="MK4 (Track 13).bin" size="16591008" crc="db141761" md5="3833e6936be04c79decbc779b1fd1d48" sha1="b94c1fd850747196bce0257ca6aea44b6f8f6f57" />
<rom name="MK4 (Track 14).bin" size="16591008" crc="6ec0d383" md5="479ee60d464de30910bc853cdc0c8eab" sha1="9178206d093b84765e1c986b983911aed9294b0e" />
<rom name="MK4 (Track 15).bin" size="16231152" crc="ca516b6b" md5="ca6e81a26ddce37cb69fd0ff57e317c0" sha1="1b2aaeb3dcfd0742be198499b241e4a4cef593fa" />

    Cuesheet:

FILE "MK4 (Track 01).bin" BINARY
  TRACK 01 MODE1/2352
    INDEX 01 00:00:00
FILE "MK4 (Track 02).bin" BINARY
  TRACK 02 AUDIO
    FLAGS DCP
    INDEX 00 00:00:00
    INDEX 01 00:02:00
FILE "MK4 (Track 03).bin" BINARY
  TRACK 03 AUDIO
    INDEX 00 00:00:00
    INDEX 01 00:02:00
FILE "MK4 (Track 04).bin" BINARY
  TRACK 04 AUDIO
    INDEX 00 00:00:00
    INDEX 01 00:02:00
FILE "MK4 (Track 05).bin" BINARY
  TRACK 05 AUDIO
    INDEX 00 00:00:00
    INDEX 01 00:02:00
FILE "MK4 (Track 06).bin" BINARY
  TRACK 06 AUDIO
    INDEX 00 00:00:00
    INDEX 01 00:01:74
FILE "MK4 (Track 07).bin" BINARY
  TRACK 07 AUDIO
    FLAGS DCP
    INDEX 00 00:00:00
    INDEX 01 00:02:00
FILE "MK4 (Track 08).bin" BINARY
  TRACK 08 AUDIO
    FLAGS DCP
    INDEX 00 00:00:00
    INDEX 01 00:01:74
FILE "MK4 (Track 09).bin" BINARY
  TRACK 09 AUDIO
    INDEX 00 00:00:00
    INDEX 01 00:01:74
FILE "MK4 (Track 10).bin" BINARY
  TRACK 10 AUDIO
    FLAGS DCP
    INDEX 00 00:00:00
    INDEX 01 00:01:74
FILE "MK4 (Track 11).bin" BINARY
  TRACK 11 AUDIO
    INDEX 00 00:00:00
    INDEX 01 00:02:00
FILE "MK4 (Track 12).bin" BINARY
  TRACK 12 AUDIO
    FLAGS DCP
    INDEX 00 00:00:00
    INDEX 01 00:01:74
FILE "MK4 (Track 13).bin" BINARY
  TRACK 13 AUDIO
    INDEX 00 00:00:00
    INDEX 01 00:01:74
FILE "MK4 (Track 14).bin" BINARY
  TRACK 14 AUDIO
    INDEX 00 00:00:00
    INDEX 01 00:01:74
FILE "MK4 (Track 15).bin" BINARY
  TRACK 15 AUDIO
    FLAGS DCP
    INDEX 00 00:00:00
    INDEX 01 00:01:74

    Write Offset: -22