Common Disc Info:
    Title: Ms. Pac-Man Maze Madness
    Foreign Title (Non-latin): N/A
    Disc Number / Letter: N/A
    Disc Title: N/A
    System: Sony PlayStation
    Media Type: CD-ROM
    Category: Games
    Region: NTSC-U
    Languages: English
    Disc Serial: SLUS 01018

    Ringcode Information:
        Mastering Code (laser branded/etched): PSRM-016750    H4    1A    01
        Mastering SID Code: IFPI L424
        Data-Side Mould SID Code: IFPI 720G
        Label-Side Mould SID Code: N/A
        Additional Mould: N/A
        Toolstamp or Mastering Code (engraved/stamped): N/A
    Barcode: 7 22674 02096 1
    EXE/Build Date: 2000-06-02
    Error Count: 0
    Comments: N/A
    Contents: N/A

Version and Editions:
    Version: N/A
    Edition/Release: Original
EDC:
    EDC: Yes

Extras:
    Primary Volume Descriptor (PVD):

0320 : 20 20 20 20 20 20 20 20  20 20 20 20 20 30 30 30                000
0330 : 30 30 35 32 35 31 37 33  30 30 30 30 30 00 30 30   0052517300000.00
0340 : 30 30 30 30 30 30 30 30  30 30 30 30 30 30 00 30   00000000000000.0
0350 : 30 30 30 30 30 30 30 30  30 30 30 30 30 30 30 00   000000000000000.
0360 : 30 30 30 30 30 30 30 30  30 30 30 30 30 30 30 30   0000000000000000
0370 : 00 01 00 00 00 00 00 00  00 00 00 00 00 00 00 00   ................

Copy Protection:
    Anti-modchip: No
    LibCrypt: No

Tracks and Write Offsets:
    DAT:

<rom name="MS PACMAN (Track 1).bin" size="298348848" crc="beb3bec1" md5="90b464ff0ee9afd8fdcb04a3c08a200c" sha1="f1f96e74df15e473dc187f4d8a6e17d1eadab83f" />
<rom name="MS PACMAN (Track 2).bin" size="22141728" crc="53e52955" md5="8fd938ee0609bbf14ef9c48d0338c539" sha1="c463c214a2521c78059e47e9d29e6d08b67eb015" />
<rom name="MS PACMAN (Track 3).bin" size="20763456" crc="7c764def" md5="e4970d007dc23cdeb123b4928c4bfb38" sha1="b96e20d35762bb25ff3b697d032a42aaab73374f" />
<rom name="MS PACMAN (Track 4).bin" size="2384928" crc="bb8af30c" md5="8e5cc4a58d82a812c319c632a5ec2e74" sha1="e9ebc1790845855f1048bac0f6320342b7e8b372" />
<rom name="MS PACMAN (Track 5).bin" size="22614480" crc="70a6dcf2" md5="afd15bb1829df836f615d72e29388bec" sha1="3c2760c358cecea023fe8b16a68aad0efd3c2673" />
<rom name="MS PACMAN (Track 6).bin" size="21252672" crc="fc47ad70" md5="4e0bd973d733c9f0a97b6d81c733da34" sha1="2e96e52e70a4aa40b20d37a12e0936b5e4cfd101" />
<rom name="MS PACMAN (Track 7).bin" size="28002912" crc="53138a3e" md5="938cd585633f5c4bff1856b807bfd8de" sha1="53bf773f2fd1e9ac3bf219555bf61a36c93a19a9" />

    Cuesheet:

FILE "MS PACMAN (Track 1).bin" BINARY
  TRACK 01 MODE2/2352
    INDEX 01 00:00:00
FILE "MS PACMAN (Track 2).bin" BINARY
  TRACK 02 AUDIO
    INDEX 00 00:00:00
    INDEX 01 00:02:00
FILE "MS PACMAN (Track 3).bin" BINARY
  TRACK 03 AUDIO
    INDEX 00 00:00:00
    INDEX 01 00:02:00
FILE "MS PACMAN (Track 4).bin" BINARY
  TRACK 04 AUDIO
    INDEX 00 00:00:00
    INDEX 01 00:02:00
FILE "MS PACMAN (Track 5).bin" BINARY
  TRACK 05 AUDIO
    INDEX 00 00:00:00
    INDEX 01 00:02:00
FILE "MS PACMAN (Track 6).bin" BINARY
  TRACK 06 AUDIO
    INDEX 00 00:00:00
    INDEX 01 00:02:00
FILE "MS PACMAN (Track 7).bin" BINARY
  TRACK 07 AUDIO
    INDEX 00 00:00:00
    INDEX 01 00:02:00

    Write Offset: -647

http://redump.org/disc/32405/

Verification Data:
https://drive.google.com/file/d/19LozjN … sp=sharing

If you want to get a ton of dumps done and ready for upload, never batch dump without tagging. You will leave yourself with a myriad of untagged dumps and it will drive you nuts.