Common Disc Info:
    Title: Scholastic's The Magic School Bus Explores the Ocean
    Foreign Title (Non-latin): N/A
    Disc Number / Letter: N/A
    Disc Title: N/A
    System: IBM PC Compatible
    Media Type: CD-ROM
    Category: Games
    Region: USA
    Languages: English
    Disc Serial: Disc Assy. 451-052-012 0396    Part No. 90626

    Ringcode Information:
        Mastering Code (laser branded/etched): 451-052-012    + +    71270-01
        Mastering SID Code: IFPI L027
        Data-Side Mould SID Code: N/A
        Label-Side Mould SID Code: N/A
        Additional Mould: N/A
        Toolstamp or Mastering Code (engraved/stamped): N/A
    Barcode: N/A
    Error Count: 0
    Comments: [T:ISBN] N/A
    Contents: N/A

Version and Editions:
    Version: 1.0
    Edition/Release: Original

Extras:
    Primary Volume Descriptor (PVD):

0320 : 20 20 20 20 20 20 20 20  20 20 20 20 20 30 30 30                000
0330 : 30 30 30 30 30 30 30 30  30 30 30 00 30 00 30 30   00000000000.0.00
0340 : 30 30 30 30 30 30 30 30  30 30 30 30 00 30 00 30   000000000000.0.0
0350 : 30 30 30 30 30 30 30 30  30 30 30 30 30 00 30 00   0000000000000.0.
0360 : 30 30 30 30 30 30 30 30  30 30 30 30 30 30 00 30   00000000000000.0
0370 : 00 01 00 00 00 00 00 00  00 00 00 00 00 00 00 00   ................

Copy Protection:
    Copy Protection: None found

Tracks and Write Offsets:
    DAT:

<rom name="MSEO101__01 (Track 1).bin" size="310360512" crc="b836a0e1" md5="0bd4a563f0da0aaaa3c298d375abbd64" sha1="c8e06d15bcc1390b22091adc1678cdd789311d89" />
<rom name="MSEO101__01 (Track 2).bin" size="11207280" crc="7407dc47" md5="0ed14da42eba00fe3dfbd2d110166a50" sha1="e89ec27518d7866f44b315d412dfc5decc874f9c" />
<rom name="MSEO101__01 (Track 3).bin" size="7634592" crc="82322549" md5="53cd55e843e0ef7687978eebdf923c52" sha1="9f9e65ea6aa736d726a7b5c5236fb781d274559f" />
<rom name="MSEO101__01 (Track 4).bin" size="13531056" crc="70267c13" md5="a4c49e9a76c195684555fd45453e2adf" sha1="276562978c4b6d73c6dfe39afdb817466d0c93f8" />
<rom name="MSEO101__01 (Track 5).bin" size="22388688" crc="ebc84ade" md5="af720b1e07b482ebd52c674f55e8b713" sha1="1e0e1176ead06b14f22a9744ed79b599abb0bc18" />
<rom name="MSEO101__01 (Track 6).bin" size="20111952" crc="dcd63f18" md5="43a993a5302d94104850941820d8050f" sha1="896fc591ae57dd8f59ab8b8bced4e8dfa9ed5601" />
<rom name="MSEO101__01 (Track 7).bin" size="18910080" crc="1b552168" md5="6608190ec89c4121c68c44e71014e6ce" sha1="83ddff5ce34c59d8cc9b72050ffad39c776f486b" />
<rom name="MSEO101__01 (Track 8).bin" size="22308720" crc="8722c8f3" md5="b1d603400b0000f0b2e7ece9f32207df" sha1="b27106c4631a8eef9c9a0ab3d79c36de59a90bde" />

    Cuesheet:

CATALOG 0000000000000
FILE "MSEO101__01 (Track 1).bin" BINARY
  TRACK 01 MODE1/2352
    INDEX 01 00:00:00
FILE "MSEO101__01 (Track 2).bin" BINARY
  TRACK 02 AUDIO
    FLAGS PRE
    INDEX 00 00:00:00
    INDEX 01 00:00:74
FILE "MSEO101__01 (Track 3).bin" BINARY
  TRACK 03 AUDIO
    FLAGS PRE
    INDEX 00 00:00:00
    INDEX 01 00:02:00
FILE "MSEO101__01 (Track 4).bin" BINARY
  TRACK 04 AUDIO
    FLAGS PRE
    INDEX 00 00:00:00
    INDEX 01 00:02:00
FILE "MSEO101__01 (Track 5).bin" BINARY
  TRACK 05 AUDIO
    FLAGS PRE
    INDEX 00 00:00:00
    INDEX 01 00:02:00
FILE "MSEO101__01 (Track 6).bin" BINARY
  TRACK 06 AUDIO
    FLAGS PRE
    INDEX 00 00:00:00
    INDEX 01 00:02:00
FILE "MSEO101__01 (Track 7).bin" BINARY
  TRACK 07 AUDIO
    FLAGS PRE
    INDEX 00 00:00:00
    INDEX 01 00:02:00
FILE "MSEO101__01 (Track 8).bin" BINARY
  TRACK 08 AUDIO
    FLAGS PRE
    INDEX 00 00:00:00
    INDEX 01 00:02:00

    Write Offset: 222

http://redump.org/disc/43587/

Verification Data:
https://drive.google.com/file/d/1xv713V … sp=sharing

If you want to get a ton of dumps done and ready for upload, never batch dump without tagging. You will leave yourself with a myriad of untagged dumps and it will drive you nuts.