1 (edited by alcoatjez 2020-05-12 18:57:36)

Disc 1

Matches http://redump.org/disc/17122/

Common Disc Info:
    Title: Night Trap
    Foreign Title (Non-latin): (OPTIONAL)
    Disc Number / Letter: 1
    Disc Title: (OPTIONAL)
    System: Sega CD / Mega CD
    Media Type: CD-ROM
    Category: Games
    Region: Europe
    Languages: English
    Disc Serial: 4903

    Ringcode Information:
        Mastering Code (laser branded/etched): MK-4903P-00068-R1M   V
        Mastering SID Code: (REQUIRED, IF EXISTS)
        Data-Side Mould SID Code: (REQUIRED, IF EXISTS)
        Label-Side Mould SID Code: (REQUIRED, IF EXISTS)
        Additional Mould: (REQUIRED, IF EXISTS)
        Toolstamp or Mastering Code (engraved/stamped): 1 2
    Barcode: 4 974365 649036
    EXE/Build Date: 1993-04
    Error Count: 0
    Comments:

Number below disc serial 670-3277-50

On the boxfront and back is the number 670-3280-50

    Contents: (OPTIONAL)

Version and Editions:
    Version: (REQUIRED, IF EXISTS)
    Edition/Release: Original (VERIFY THIS)

Extras:
    Primary Volume Descriptor (PVD):

0320 : 20 20 20 20 20 20 20 20  20 20 20 20 20 31 39 39                199
0330 : 33 30 34 31 35 31 36 32  36 35 30 30 30 00 31 39   3041516265000.19
0340 : 39 33 30 34 31 36 31 33  31 38 35 34 30 30 00 30   93041613185400.0
0350 : 30 30 30 30 30 30 30 30  30 30 30 30 30 30 30 00   000000000000000.
0360 : 30 30 30 30 30 30 30 30  30 30 30 30 30 30 30 30   0000000000000000
0370 : 00 01 00 00 00 00 00 00  00 00 00 00 00 00 00 00   ................

    Header:

0100 : 53 45 47 41 20 4D 45 47  41 20 44 52 49 56 45 20   SEGA MEGA DRIVE 
0110 : 28 43 29 53 45 47 41 20  31 39 39 33 2E 41 50 52   (C)SEGA 1993.APR
0120 : 20 20 20 20 20 20 20 20  20 20 20 20 20 20 20 20                   
0130 : 20 20 20 20 20 20 20 20  20 20 20 20 20 20 20 20                   
0140 : 20 20 20 20 20 20 20 20  20 20 20 20 20 20 20 20                   
0150 : 4E 49 47 48 54 20 54 52  41 50 20 20 20 20 20 20   NIGHT TRAP      
0160 : 20 20 20 20 20 20 20 20  20 20 20 20 20 20 20 20                   
0170 : 20 20 20 20 20 20 20 20  20 20 20 20 20 20 20 20                   
0180 : 47 4D 20 4D 4B 2D 34 39  30 33 20 2D 30 30 20 20   GM MK-4903 -00  
0190 : 4A 20 20 20 20 20 20 20  20 20 20 20 20 20 20 20   J               
01A0 : 20 20 20 20 20 20 20 20  20 20 20 20 20 20 20 20                   
01B0 : 20 20 20 20 20 20 20 20  20 20 20 20 20 20 20 20                   
01C0 : 20 20 20 20 20 20 20 20  20 20 20 20 20 20 20 20                   
01D0 : 20 20 20 20 20 20 20 20  20 20 20 20 20 20 20 20                   
01E0 : 20 20 20 20 20 20 20 20  20 20 20 20 20 20 20 20                   
01F0 : 45 20 20 20 20 20 20 20  20 20 20 20 20 20 20 20   E               

Tracks and Write Offsets:
    DAT:

<rom name="MEGADRIVE_SMART_TV_DEMO (Track 1).bin" size="615939408" crc="793bdf64" md5="01891fef00cf0cb98eeaa4d799f0141f" sha1="357c3d4c29fd60220b6a33bc437485ca08a9d98a" />
<rom name="MEGADRIVE_SMART_TV_DEMO (Track 2).bin" size="2587200" crc="1cc25944" md5="d47840b34e5286b8c5ecb3514489ee2a" sha1="18fc15b4003126b9874c1c67d2034c8f33a6fa63" />

    Cuesheet:

CATALOG 0000000000000
FILE "MEGADRIVE_SMART_TV_DEMO (Track 1).bin" BINARY
  TRACK 01 MODE1/2352
    INDEX 01 00:00:00
FILE "MEGADRIVE_SMART_TV_DEMO (Track 2).bin" BINARY
  TRACK 02 AUDIO
    INDEX 00 00:00:00
    INDEX 01 00:02:00

    Write Offset: 1308

https://1fichier.com/?qpyusruyv0z8bg4sifzj

Disc 2

Matches http://redump.org/disc/17123/

Common Disc Info:
    Title: Night Trap
    Foreign Title (Non-latin): (OPTIONAL)
    Disc Number / Letter: 2
    Disc Title: (OPTIONAL)
    System: Sega CD / Mega CD
    Media Type: CD-ROM
    Category: Games
    Region: Europe
    Languages: English
    Disc Serial: 4903

    Ringcode Information:
        Mastering Code (laser branded/etched): MK-4903P-00069-R1M   V
        Mastering SID Code: (REQUIRED, IF EXISTS)
        Data-Side Mould SID Code: (REQUIRED, IF EXISTS)
        Label-Side Mould SID Code: (REQUIRED, IF EXISTS)
        Additional Mould: (REQUIRED, IF EXISTS)
        Toolstamp or Mastering Code (engraved/stamped): 1 1
    Barcode: 4 974365 649036
    EXE/Build Date: 1993-04
    Error Count: 0
    Comments:

Number below disc serial 670-3437-50

On the boxfront and back is the number 670-3280-50

    Contents: (OPTIONAL)

Version and Editions:
    Version: (REQUIRED, IF EXISTS)
    Edition/Release: Original

Extras:
    Primary Volume Descriptor (PVD):

0320 : 20 20 20 20 20 20 20 20  20 20 20 20 20 31 39 39                199
0330 : 33 30 35 32 34 32 32 30  37 31 36 30 30 00 31 39   3052422071600.19
0340 : 39 33 30 35 32 34 32 32  30 37 31 39 30 30 00 30   93052422071900.0
0350 : 30 30 30 30 30 30 30 30  30 30 30 30 30 30 30 00   000000000000000.
0360 : 30 30 30 30 30 30 30 30  30 30 30 30 30 30 30 30   0000000000000000
0370 : 00 01 00 00 00 00 00 00  00 00 00 00 00 00 00 00   ................

    Header:

0100 : 53 45 47 41 20 4D 45 47  41 20 44 52 49 56 45 20   SEGA MEGA DRIVE 
0110 : 28 43 29 53 45 47 41 20  31 39 39 33 2E 41 50 52   (C)SEGA 1993.APR
0120 : 20 20 20 20 20 20 20 20  20 20 20 20 20 20 20 20                   
0130 : 20 20 20 20 20 20 20 20  20 20 20 20 20 20 20 20                   
0140 : 20 20 20 20 20 20 20 20  20 20 20 20 20 20 20 20                   
0150 : 4E 49 47 48 54 20 54 52  41 50 20 20 20 20 20 20   NIGHT TRAP      
0160 : 20 20 20 20 20 20 20 20  20 20 20 20 20 20 20 20                   
0170 : 20 20 20 20 20 20 20 20  20 20 20 20 20 20 20 20                   
0180 : 47 4D 20 4D 4B 2D 34 39  30 33 20 2D 30 30 20 20   GM MK-4903 -00  
0190 : 4A 20 20 20 20 20 20 20  20 20 20 20 20 20 20 20   J               
01A0 : 20 20 20 20 20 20 20 20  20 20 20 20 20 20 20 20                   
01B0 : 20 20 20 20 20 20 20 20  20 20 20 20 20 20 20 20                   
01C0 : 20 20 20 20 20 20 20 20  20 20 20 20 20 20 20 20                   
01D0 : 20 20 20 20 20 20 20 20  20 20 20 20 20 20 20 20                   
01E0 : 20 20 20 20 20 20 20 20  20 20 20 20 20 20 20 20                   
01F0 : 45 20 20 20 20 20 20 20  20 20 20 20 20 20 20 20   E               

Tracks and Write Offsets:
    DAT:

<rom name="MEGADRIVE_SMART_TV_DEMO (Track 1).bin" size="514650528" crc="f332c2a0" md5="2f56ab8644e9020d3040d495ac738b01" sha1="30bd4254ea04b4b8f2b9efefeef9e8c1e998265e" />
<rom name="MEGADRIVE_SMART_TV_DEMO (Track 2).bin" size="2587200" crc="1cc25944" md5="d47840b34e5286b8c5ecb3514489ee2a" sha1="18fc15b4003126b9874c1c67d2034c8f33a6fa63" />

    Cuesheet:

CATALOG 0000000000000
FILE "MEGADRIVE_SMART_TV_DEMO (Track 1).bin" BINARY
  TRACK 01 MODE1/2352
    INDEX 01 00:00:00
FILE "MEGADRIVE_SMART_TV_DEMO (Track 2).bin" BINARY
  TRACK 02 AUDIO
    INDEX 00 00:00:00
    INDEX 01 00:02:00

    Write Offset: 1257

https://1fichier.com/?tzs2bzqdw90psb3ee3pw