1 (edited by Rootifera 2020-05-13 16:43:24)

Match: http://redump.org/disc/21862/
Logs: https://drive.google.com/open?id=1kvp10 … uR-FjZf2wn

Common Disc Info:
    Title: Moto Racer
    Foreign Title (Non-latin): 
    Disc Number / Letter: (OPTIONAL)
    Disc Title: (OPTIONAL)
    System: IBM PC Compatible
    Media Type: CD-ROM
    Category: Games
    Matching IDs: 21862
    Region: Europe
    Languages: English, French, German, Italian, Spanish, Swedish
    Disc Serial: ADX08801161D

    Ringcode Information:
        Mastering Code (laser branded/etched): ·MASTERED BY NIMBUS·    CDD16798 ADX08801161D    ·
        Mastering SID Code: IFPI L123
        Data-Side Mould SID Code: IFPI 2312
        Label-Side Mould SID Code: (REQUIRED, IF EXISTS)
        Additional Mould: (REQUIRED, IF EXISTS)
        Toolstamp or Mastering Code (engraved/stamped): (REQUIRED, IF EXISTS)
    Barcode: 
    Error Count: 0
    Comments: [T:ISBN] (OPTIONAL)
    Contents: (OPTIONAL)

Version and Editions:
    Version: 
    Edition/Release: Original

Extras:
    Primary Volume Descriptor (PVD):

0320 : 20 20 20 20 20 20 20 20  20 20 20 20 20 30 30 30                000
0330 : 30 30 30 30 30 30 30 30  30 30 30 30 30 00 30 30   0000000000000.00
0340 : 30 30 30 30 30 30 30 30  30 30 30 30 30 30 00 30   00000000000000.0
0350 : 30 30 30 30 30 30 30 30  30 30 30 30 30 30 30 00   000000000000000.
0360 : 30 30 30 30 30 30 30 30  30 30 30 30 30 30 30 30   0000000000000000
0370 : 00 01 00 00 00 00 00 00  00 00 00 00 00 00 00 00   ................

Copy Protection:
    Copy Protection: 

Tracks and Write Offsets:
    DAT:

<rom name="MOTO_RACER (Track 01).bin" size="211964592" crc="ba2cb27f" md5="3a0861cc4a76252bcfa1134e4b2917a3" sha1="f530e4667c6e5c66d577be182d4f7c5fdeb0adb5" />
<rom name="MOTO_RACER (Track 02).bin" size="44951424" crc="4a8d84e4" md5="1db1cd2f4872428743fe267e5dbc9564" sha1="af5c3dfd07a0584ff62e0bab9a8a8546597fe316" />
<rom name="MOTO_RACER (Track 03).bin" size="25302816" crc="9b350c2b" md5="c1c1406e62ad16e6f521aaae9394edc0" sha1="2b8a464f39303f8dafcae8918f4630e67302d71d" />
<rom name="MOTO_RACER (Track 04).bin" size="33050304" crc="952c9735" md5="0bc3fc0b72dfe13722f45e962d2066c8" sha1="57c2f49ea6dfeccbd7715f401c235b041f76f200" />
<rom name="MOTO_RACER (Track 05).bin" size="32798640" crc="6e7c95ed" md5="6c8aedefff6eeb174ba02796e5053a58" sha1="6f79eb06d5f873c8e6aa665de4074ce3a561e3f8" />
<rom name="MOTO_RACER (Track 06).bin" size="46435536" crc="5ef233a4" md5="86f21dd5bda0fd5b9c39440e230ebb40" sha1="90cc3f38982f8371abe4fdb6615bd7b4acfcd7a7" />
<rom name="MOTO_RACER (Track 07).bin" size="33139680" crc="d411e748" md5="8c476a93ef084706ad1f207d7e8b3977" sha1="273f0a9d414b20de8aa4fa97d203ba8310213278" />
<rom name="MOTO_RACER (Track 08).bin" size="34327440" crc="1d6d6e77" md5="53e25933eb2df70ffbdc4fb0c8dcdf11" sha1="4e63809c5bf07d65501618777e2b3fe2a885bc4a" />
<rom name="MOTO_RACER (Track 09).bin" size="36679440" crc="6fe82910" md5="6a0e91c0f568b7282aaa7b695ad20cdd" sha1="17d3b8d8a2e71d137679bc02b0e35e8654f88856" />
<rom name="MOTO_RACER (Track 10).bin" size="33647712" crc="f728c9b6" md5="20c323cd4aa68418737d3bee48e55a69" sha1="588d61b13399b9d906324eb7b6b2e0123973cee7" />
<rom name="MOTO_RACER (Track 11).bin" size="10179456" crc="9b604518" md5="a3292cf3fe046403312b7cfdd4fa890a" sha1="6d350879e7982831fd49227d4d61bba6d2ab08ca" />
<rom name="MOTO_RACER (Track 12).bin" size="28136976" crc="e2133654" md5="d4290b675be88498caca76aac8c1f82d" sha1="418e778642a56cecd433d81d84b8ce0de0246604" />
<rom name="MOTO_RACER (Track 13).bin" size="3939600" crc="d7018785" md5="680be3b0523799351a4075ac54aa0f26" sha1="3e1c0cb3e6598d127168dbfa2d29adf17dc5875c" />

    Cuesheet:

CATALOG 0000000000000
FILE "MOTO_RACER (Track 01).bin" BINARY
  TRACK 01 MODE1/2352
    INDEX 01 00:00:00
FILE "MOTO_RACER (Track 02).bin" BINARY
  TRACK 02 AUDIO
    INDEX 00 00:00:00
    INDEX 01 00:02:00
FILE "MOTO_RACER (Track 03).bin" BINARY
  TRACK 03 AUDIO
    INDEX 01 00:00:00
FILE "MOTO_RACER (Track 04).bin" BINARY
  TRACK 04 AUDIO
    INDEX 01 00:00:00
FILE "MOTO_RACER (Track 05).bin" BINARY
  TRACK 05 AUDIO
    INDEX 01 00:00:00
FILE "MOTO_RACER (Track 06).bin" BINARY
  TRACK 06 AUDIO
    INDEX 01 00:00:00
FILE "MOTO_RACER (Track 07).bin" BINARY
  TRACK 07 AUDIO
    INDEX 01 00:00:00
FILE "MOTO_RACER (Track 08).bin" BINARY
  TRACK 08 AUDIO
    INDEX 01 00:00:00
FILE "MOTO_RACER (Track 09).bin" BINARY
  TRACK 09 AUDIO
    INDEX 01 00:00:00
FILE "MOTO_RACER (Track 10).bin" BINARY
  TRACK 10 AUDIO
    INDEX 01 00:00:00
FILE "MOTO_RACER (Track 11).bin" BINARY
  TRACK 11 AUDIO
    INDEX 01 00:00:00
FILE "MOTO_RACER (Track 12).bin" BINARY
  TRACK 12 AUDIO
    INDEX 01 00:00:00
FILE "MOTO_RACER (Track 13).bin" BINARY
  TRACK 13 AUDIO
    INDEX 01 00:00:00

    Write Offset: 0