1 (edited by Rootifera 2020-05-13 14:59:28)

Match: http://redump.org/disc/18314/  || http://redump.org/disc/35386/
Logs: https://drive.google.com/open?id=1veuAN … 7y0LR1SmmX

Common Disc Info:
    Title: Tomb Raider III: Adventures of Lara Croft
    Foreign Title (Non-latin): 
    Disc Number / Letter: (OPTIONAL)
    Disc Title: (OPTIONAL)
    System: IBM PC Compatible
    Media Type: CD-ROM
    Category: Games
    Matching IDs: 18314
    Region: Europe
    Languages: English
    Disc Serial: 

    Ringcode Information:
        Mastering Code (laser branded/etched): CDD25981 MTOM3PEN00 V2    :    NIMBUS
        Mastering SID Code: IFPI L123
        Data-Side Mould SID Code: IFPI 2312
        Label-Side Mould SID Code: (REQUIRED, IF EXISTS)
        Additional Mould: (REQUIRED, IF EXISTS)
        Toolstamp or Mastering Code (engraved/stamped): 1:2
    Barcode: 
    Error Count: 0
    Comments: 
    Contents: (OPTIONAL)

Version and Editions:
    Version: (REQUIRED, IF EXISTS)
    Edition/Release: Original

Extras:
    Primary Volume Descriptor (PVD):

0320 : 20 20 20 20 20 20 20 20  20 20 20 20 20 31 39 39                199
0330 : 38 31 32 30 32 31 31 30  35 32 31 37 30 2A 31 39   8120211052170*19
0340 : 39 38 31 32 30 32 31 31  30 35 34 39 34 38 03 00   98120211054948..
0350 : 00 00 00 00 00 00 00 00  00 00 00 00 00 00 00 00   ................
0360 : 00 00 00 00 00 00 00 00  00 00 00 00 00 00 00 00   ................
0370 : 00 01 00 00 00 00 00 00  00 00 00 00 00 00 00 00   ................

Copy Protection:
    Copy Protection:

P:\: CD-Lock
P:\AWCS.AFP: CD-Lock
P:\CONFIG.AFP: CD-Lock
P:\NEIR.AFP: CD-Lock
P:\OKET.AFP: CD-Lock
P:\VFAW.AFP: CD-Lock

Tracks and Write Offsets:
    DAT:

<rom name="TR3 (Track 1).bin" size="643685952" crc="18e10f2d" md5="263e465107c55d7526db49e6bbe03f8c" sha1="006318b4c864e81d05b25a67617ed8c8a33bd45e" />
<rom name="TR3 (Track 2).bin" size="3880800" crc="56903d96" md5="039286cd61d33ac2a516334949672529" sha1="5baa34fe7687fe35e2b20baa307180850335bb07" />
<rom name="TR3 (Track 3).bin" size="156111648" crc="eab5be78" md5="a090a69351472670d892e31d17d619e1" sha1="0af603cd9d97f90091a757bbbf399563b2869e93" />
<rom name="TR3 (Track 4).bin" size="2834160" crc="d9bd0e50" md5="7e1b7e5a2483978ceaee80a7d83e785f" sha1="daeff923d6a06149616ab540129b7d326e2e59eb" />

    Cuesheet:

CATALOG 0000000000000
FILE "TR3 (Track 1).bin" BINARY
  TRACK 01 MODE1/2352
    INDEX 01 00:00:00
FILE "TR3 (Track 2).bin" BINARY
  TRACK 02 AUDIO
    INDEX 00 00:00:00
    INDEX 01 00:02:00
FILE "TR3 (Track 3).bin" BINARY
  TRACK 03 AUDIO
    INDEX 00 00:00:00
    INDEX 01 14:22:74
FILE "TR3 (Track 4).bin" BINARY
  TRACK 04 MODE1/2352
    INDEX 00 00:00:00
    INDEX 01 00:02:00

    Write Offset: 0