1 (edited by Rootifera 2020-05-13 14:07:06)

Matching: http://redump.org/disc/31963/
Logs: https://drive.google.com/open?id=1jOXkO … R7eaVlXjbP

Common Disc Info:
    Title: Command & Conquer: Red Alert: Counterstrike
    Foreign Title (Non-latin): 
    Disc Number / Letter: (OPTIONAL)
    Disc Title: (OPTIONAL)
    System: IBM PC Compatible
    Media Type: CD-ROM
    Category: Add-Ons
    Matching IDs: 31963
    Region: Europe
    Languages: English
    Disc Serial: (REQUIRED, IF EXISTS)

    Ringcode Information:
        Mastering Code (laser branded/etched): -MASTERED BY NIMBUS-    CDD15750 COUNTER STRIKE    :·
        Mastering SID Code: IFPI L122
        Data-Side Mould SID Code: IFPI 2319
        Label-Side Mould SID Code: (REQUIRED, IF EXISTS)
        Additional Mould: (REQUIRED, IF EXISTS)
        Toolstamp or Mastering Code (engraved/stamped): 1:2
    Barcode: 
    Error Count: 0
    Comments: Disc 3 of 'Command & Conquer: Red Alert complete with Counterstrike & The Aftermath'.
    Contents: (OPTIONAL)

Version and Editions:
    Version: 
    Edition/Release: Original

Extras:
    Primary Volume Descriptor (PVD):

0320 : 20 20 20 20 20 20 20 20  20 20 20 20 20 30 30 30                000
0330 : 30 30 30 30 30 30 30 30  30 30 30 30 30 00 30 30   0000000000000.00
0340 : 30 30 30 30 30 30 30 30  30 30 30 30 30 30 00 30   00000000000000.0
0350 : 30 30 30 30 30 30 30 30  30 30 30 30 30 30 30 00   000000000000000.
0360 : 30 30 30 30 30 30 30 30  30 30 30 30 30 30 30 30   0000000000000000
0370 : 00 01 00 00 00 00 00 00  00 00 00 00 00 00 00 00   ................

Copy Protection:
    Copy Protection: 

Tracks and Write Offsets:
    DAT:

<rom name="CD3 (Track 1).bin" size="336884016" crc="1e2045a3" md5="25efa8c39934097b54e3af877e9ae0ab" sha1="c09ed31600810cb30f1c27324f2d0a0ebc0392b9" />
<rom name="CD3 (Track 2).bin" size="37895424" crc="4111e954" md5="fd8550dc954d3e45bab002f5751011a0" sha1="f5a5a796649e27de497bc60e784617124720b65f" />
<rom name="CD3 (Track 3).bin" size="47493936" crc="98792032" md5="0b1078773e6c75ab619fb23f0f75fe79" sha1="1ece5d90eecf6876a92cfffc6a562053028e6baf" />
<rom name="CD3 (Track 4).bin" size="45064320" crc="541f7eb1" md5="f31a59c59e57ad9475af0d75cdfad768" sha1="9062054d3d09e7ce08a74d37b0793506790fa2dc" />
<rom name="CD3 (Track 5).bin" size="46364976" crc="13a8a444" md5="a640ca1f0e02e7ef2fbc1c144df7a583" sha1="cb91d49a987e8132645263fb099237b41a3c67ac" />
<rom name="CD3 (Track 6).bin" size="51315936" crc="796c4bd8" md5="86cfb319938a91ac736aa0228eb3d33b" sha1="9c439dd3f1dacf12f7f6a5ba0cf2b8b0192f4aa7" />

    Cuesheet:

CATALOG 0000000000000
FILE "CD3 (Track 1).bin" BINARY
  TRACK 01 MODE1/2352
    INDEX 01 00:00:00
FILE "CD3 (Track 2).bin" BINARY
  TRACK 02 AUDIO
    INDEX 00 00:00:00
    INDEX 01 00:02:00
FILE "CD3 (Track 3).bin" BINARY
  TRACK 03 AUDIO
    INDEX 01 00:00:00
FILE "CD3 (Track 4).bin" BINARY
  TRACK 04 AUDIO
    INDEX 01 00:00:00
FILE "CD3 (Track 5).bin" BINARY
  TRACK 05 AUDIO
    INDEX 01 00:00:00
FILE "CD3 (Track 6).bin" BINARY
  TRACK 06 AUDIO
    INDEX 01 00:00:00

    Write Offset: 0