Match: http://redump.org/disc/51459/
Logs: https://drive.google.com/open?id=1cvjh_ … 0a6TndL7Sn

Common Disc Info:
    Title: Redline
    Foreign Title (Non-latin): (OPTIONAL)
    Disc Number / Letter: (OPTIONAL)
    Disc Title: (OPTIONAL)
    System: IBM PC Compatible
    Media Type: CD-ROM
    Category: Games
    Region: USA
    Languages: English
    Disc Serial: 5000-00468

    Ringcode Information:
        Mastering Code (laser branded/etched): 000-00468 STARTEK   + +   96137-01
        Mastering SID Code: IFPI L028
        Data-Side Mould SID Code: IFPI 1013
        Label-Side Mould SID Code: (REQUIRED, IF EXISTS)
        Additional Mould: (REQUIRED, IF EXISTS)
        Toolstamp or Mastering Code (engraved/stamped): (REQUIRED, IF EXISTS)
    Barcode: (OPTIONAL)
    Error Count: 1250
    Comments: [T:ISBN] (OPTIONAL)
    Contents: (OPTIONAL)

Version and Editions:
    Version: (REQUIRED, IF EXISTS)
    Edition/Release: Original

Extras:
    Primary Volume Descriptor (PVD):

0320 : 20 20 20 20 20 20 20 20  20 20 20 20 20 31 39 39                199
0330 : 39 30 33 30 32 30 30 31  34 30 32 30 30 00 31 39   9030200140200.19
0340 : 39 39 30 33 30 32 30 30  31 34 30 32 30 30 00 30   99030200140200.0
0350 : 30 30 30 30 30 30 30 30  30 30 30 30 30 30 30 00   000000000000000.
0360 : 30 30 30 30 30 30 30 30  30 30 30 30 30 30 30 30   0000000000000000
0370 : 00 01 00 00 00 00 00 00  00 00 00 00 00 00 00 00   ................

Copy Protection:
    Copy Protection:

P:\: SafeDisc 1
P:\00000001.TMP: SafeDisc 1 or greater
P:\clcd16.dll: SafeDisc 1
P:\clcd32.dll: SafeDisc 1
P:\clokspl.exe: SafeDisc 1, CD Check
P:\dplayerx.dll: SafeDisc 1
P:\SETUP\InstData\GameData\FULL\Redline.exe: CD Check, SafeDisc 1.01.038
P:\SETUP\InstData\GameData\FULL\REDLINE.icd: SafeDisc 1, CD Check, SafeDisc 1.01.038

Tracks and Write Offsets:
    DAT:

<rom name="REDLINE (Track 01).bin" size="460639200" crc="d72bfaf2" md5="e518839d2d8878186be5942656d21fbe" sha1="0409fcdb48ca1af072ef21238ee6c77bfdb2e2cb" />
<rom name="REDLINE (Track 02).bin" size="29284752" crc="79ccddb6" md5="4f7385cfe716d530d56892a94963aa90" sha1="a0fa3d7da81973944d7a7e65554794eb59f3102c" />
<rom name="REDLINE (Track 03).bin" size="33137328" crc="2dc5a6e9" md5="fe3257b9d8f797fc7e988d9002d7cd6b" sha1="19e6908823578ed2637d09ecb0605bd1d78c47e5" />
<rom name="REDLINE (Track 04).bin" size="31069920" crc="43055481" md5="d0d556c02c8b4eafd97e1339a8312548" sha1="cfa08078d90279076b78d988ae6c83c8eebcbeb3" />
<rom name="REDLINE (Track 05).bin" size="30409008" crc="6ebbd8b7" md5="5a774467a1ba9dd3a89d2e65419c1892" sha1="9c08ffd82391eb15aff0d121803285b2297c328d" />
<rom name="REDLINE (Track 06).bin" size="31754352" crc="acd8b5ef" md5="8c687328eb87be9316ec7ee8e4e51866" sha1="81587370030add5ef34d8526b84427c0b2e2fed1" />
<rom name="REDLINE (Track 07).bin" size="30830016" crc="c0864f85" md5="ca8077690164b0fb245090184f93c681" sha1="1e02179ed2023bda877577d413c1103d6f93d137" />
<rom name="REDLINE (Track 08).bin" size="33937008" crc="0960517e" md5="8a59723d3215fe9a050eb04a0166bc3e" sha1="b58c38034891685610dc486610953c1f75c353cb" />
<rom name="REDLINE (Track 09).bin" size="30256128" crc="f0185ac2" md5="ac56f93005d6af7ab11ae9a97d956ab8" sha1="0c1ca617e357bc978a0280b1230919be9f921f49" />
<rom name="REDLINE (Track 10).bin" size="21400848" crc="c99630db" md5="3162cea6ed73864fb9e6e59546ebe3e8" sha1="3fd4495b80aa93c8a6c86f5a411df5d55be4fca2" />

    Cuesheet:

FILE "REDLINE (Track 01).bin" BINARY
  TRACK 01 MODE1/2352
    INDEX 01 00:00:00
FILE "REDLINE (Track 02).bin" BINARY
  TRACK 02 AUDIO
    INDEX 00 00:00:00
    INDEX 01 00:02:00
FILE "REDLINE (Track 03).bin" BINARY
  TRACK 03 AUDIO
    INDEX 01 00:00:00
FILE "REDLINE (Track 04).bin" BINARY
  TRACK 04 AUDIO
    INDEX 01 00:00:00
FILE "REDLINE (Track 05).bin" BINARY
  TRACK 05 AUDIO
    INDEX 01 00:00:00
FILE "REDLINE (Track 06).bin" BINARY
  TRACK 06 AUDIO
    INDEX 01 00:00:00
FILE "REDLINE (Track 07).bin" BINARY
  TRACK 07 AUDIO
    INDEX 01 00:00:00
FILE "REDLINE (Track 08).bin" BINARY
  TRACK 08 AUDIO
    INDEX 01 00:00:00
FILE "REDLINE (Track 09).bin" BINARY
  TRACK 09 AUDIO
    INDEX 01 00:00:00
FILE "REDLINE (Track 10).bin" BINARY
  TRACK 10 AUDIO
    INDEX 01 00:00:00

    Write Offset: -12