Match: http://redump.org/disc/10030/
Logs: https://drive.google.com/open?id=18roKA … -ipHWfUS99

Common Disc Info:
    Title: SWIV 3D
    Foreign Title (Non-latin): (OPTIONAL)
    Disc Number / Letter: (OPTIONAL)
    Disc Title: (OPTIONAL)
    System: IBM PC Compatible
    Media Type: CD-ROM
    Category: Games
    Region: Europe
    Languages: English
    Disc Serial: SCI1901UK

    Ringcode Information:
        Mastering Code (laser branded/etched): AAC0406 00125 SC12 3DN   :
        Mastering SID Code: IFPI L122
        Data-Side Mould SID Code: (REQUIRED, IF EXISTS)
        Label-Side Mould SID Code: (REQUIRED, IF EXISTS)
        Additional Mould: (REQUIRED, IF EXISTS)
        Toolstamp or Mastering Code (engraved/stamped): 1:3
    Barcode: (OPTIONAL)
    Error Count: 0
    Comments: [T:ISBN] (OPTIONAL)
    Contents: (OPTIONAL)

Version and Editions:
    Version: (REQUIRED, IF EXISTS)
    Edition/Release: Original

Extras:
    Primary Volume Descriptor (PVD):

0320 : 20 20 20 20 20 20 20 20  20 20 20 20 20 31 39 39                199
0330 : 36 31 30 32 32 31 32 31  34 30 33 30 30 00 31 39   6102212140300.19
0340 : 39 36 31 30 32 32 31 32  31 34 30 33 30 30 00 32   96102212140300.2
0350 : 30 30 36 31 30 32 30 31  32 31 34 30 33 30 30 00   006102012140300.
0360 : 31 39 39 36 31 30 32 32  31 32 31 34 30 33 30 30   1996102212140300
0370 : 00 01 00 00 00 00 00 00  00 00 00 00 00 00 00 00   ................

Copy Protection:
    Copy Protection: 

Tracks and Write Offsets:
    DAT:

<rom name="SWIV 3D (Track 01).bin" size="139798176" crc="e819716c" md5="b7c631f6247492d4e2b04d68acc3d8b9" sha1="cb459aba8bb6df8d215846719c6151f3eac9301f" />
<rom name="SWIV 3D (Track 02).bin" size="76823376" crc="a7d6a053" md5="5cc2f8a4814199b958eb68d1962b05b9" sha1="86ac0295b89759734b511e5bdd4e47b28e04c513" />
<rom name="SWIV 3D (Track 03).bin" size="71300880" crc="55fdfd91" md5="1090af2cee0f69b227e522a3e173f3c7" sha1="11a7cdfad9ebe06655eb5be605ecc9059250f297" />
<rom name="SWIV 3D (Track 04).bin" size="52877664" crc="11e94cc3" md5="a6d3442e8b9fe5492a312cbe8ec43f55" sha1="0f644c06c928de46c0c4b470edf4840a25db498f" />
<rom name="SWIV 3D (Track 05).bin" size="53253984" crc="89967aab" md5="dcaca69907439fda3249acaef4baa65d" sha1="5570b0eba3303cd24e0c41a2df582022d90243dd" />
<rom name="SWIV 3D (Track 06).bin" size="48067824" crc="8835978d" md5="ac74150deddfe2a119d2cbadde3308dd" sha1="f3b82cb665ddef98870555c148ae70826bb2206f" />
<rom name="SWIV 3D (Track 07).bin" size="51826320" crc="10f2e96f" md5="d95f58a034e2c9c86a828f97018bef50" sha1="9b933db94f847f31644c6d1d08f0e3d352e8b4fa" />
<rom name="SWIV 3D (Track 08).bin" size="52616592" crc="7062927c" md5="04d107329956b5dca26c7c538a40e2af" sha1="a2ff66bd2a0fcbd44eb76cfb25698cbc855590dd" />
<rom name="SWIV 3D (Track 09).bin" size="113646288" crc="39856093" md5="d4752097aeba4b5deb34ab034a0258c0" sha1="926483ee99f8375530c0f4a36dd0b162cf4faa41" />
<rom name="SWIV 3D (Track 10).bin" size="52616592" crc="e3e09d73" md5="57a8ad50fabea0e20c5461f3464b2223" sha1="0929887d063a09fdd31fc06b47ad7076e83bec20" />

    Cuesheet:

CATALOG 0000000000000
FILE "SWIV 3D (Track 01).bin" BINARY
  TRACK 01 MODE1/2352
    INDEX 01 00:00:00
FILE "SWIV 3D (Track 02).bin" BINARY
  TRACK 02 AUDIO
    INDEX 00 00:00:00
    INDEX 01 00:02:00
FILE "SWIV 3D (Track 03).bin" BINARY
  TRACK 03 AUDIO
    INDEX 01 00:00:00
FILE "SWIV 3D (Track 04).bin" BINARY
  TRACK 04 AUDIO
    INDEX 01 00:00:00
FILE "SWIV 3D (Track 05).bin" BINARY
  TRACK 05 AUDIO
    INDEX 01 00:00:00
FILE "SWIV 3D (Track 06).bin" BINARY
  TRACK 06 AUDIO
    INDEX 01 00:00:00
FILE "SWIV 3D (Track 07).bin" BINARY
  TRACK 07 AUDIO
    INDEX 01 00:00:00
FILE "SWIV 3D (Track 08).bin" BINARY
  TRACK 08 AUDIO
    INDEX 01 00:00:00
FILE "SWIV 3D (Track 09).bin" BINARY
  TRACK 09 AUDIO
    INDEX 01 00:00:00
FILE "SWIV 3D (Track 10).bin" BINARY
  TRACK 10 AUDIO
    INDEX 01 00:00:00

    Write Offset: 0