Match: http://redump.org/disc/42257/
Logs: https://drive.google.com/open?id=1a_1ih … QAtlaAzHcg

Common Disc Info:
    Title: Mission: Humanity
    Foreign Title (Non-latin): (OPTIONAL)
    Disc Number / Letter: (OPTIONAL)
    Disc Title: (OPTIONAL)
    System: IBM PC Compatible
    Media Type: CD-ROM
    Category: Games
    Region: Europe
    Languages: English
    Disc Serial: (REQUIRED, IF EXISTS)

    Ringcode Information:
        Mastering Code (laser branded/etched): EON256AW04-0039-0001-01
        Mastering SID Code: IFPI LL21
        Data-Side Mould SID Code: IFPI 0623
        Label-Side Mould SID Code: (REQUIRED, IF EXISTS)
        Additional Mould: (REQUIRED, IF EXISTS)
        Toolstamp or Mastering Code (engraved/stamped): (REQUIRED, IF EXISTS)
    Barcode: (OPTIONAL)
    Error Count: 0
    Comments: [T:ISBN] (OPTIONAL)
    Contents: (OPTIONAL)

Version and Editions:
    Version: (REQUIRED, IF EXISTS)
    Edition/Release: Original

Extras:
    Primary Volume Descriptor (PVD):

0320 : 20 20 20 20 20 20 20 20  20 20 20 20 20 32 30 30                200
0330 : 30 31 31 31 37 31 31 32  36 30 30 30 30 00 32 30   0111711260000.20
0340 : 30 30 31 31 31 37 31 31  32 36 30 30 30 30 00 30   00111711260000.0
0350 : 30 30 30 30 30 30 30 30  30 30 30 30 30 30 30 00   000000000000000.
0360 : 30 30 30 30 30 30 30 30  30 30 30 30 30 30 30 30   0000000000000000
0370 : 00 01 00 00 00 00 00 00  00 00 00 00 00 00 00 00   ................

Copy Protection:
    Copy Protection: 

Tracks and Write Offsets:
    DAT:

<rom name="Mh (Track 1).bin" size="354333504" crc="09d4b511" md5="40de4c07fb125c3281cb282c9d87c7a4" sha1="129f9bf4ed3cdbccb73bae925b6f65f28c59033e" />
<rom name="Mh (Track 2).bin" size="20041392" crc="2c55471b" md5="7d36430dbc1ca1f32924834922bfc9c5" sha1="2bbc563ce4d6f0987167208125b8ab733cc8da9c" />
<rom name="Mh (Track 3).bin" size="52767120" crc="b141e106" md5="d457d014298f1493460d2d7a01e0b6e3" sha1="04945f2adc72719f7e3bcd9d6c71abb2e3f49979" />
<rom name="Mh (Track 4).bin" size="50353968" crc="25ec8bb8" md5="af76a5f3b063b86a4409cd4538a91e59" sha1="3df82ddaeb641682797ef80b9d431b51f38d69ca" />
<rom name="Mh (Track 5).bin" size="47686800" crc="3b7c950d" md5="6f10919d62e3bcc21e2b6c6764651375" sha1="38181c1cb1412f53497f421315ef09ca89596d21" />
<rom name="Mh (Track 6).bin" size="53816112" crc="fb171c6e" md5="048159ce4f851ceda19d07a450dec1d4" sha1="4ab49cdd626fd56d2a6bf29f9afa9e4d9b4af657" />
<rom name="Mh (Track 7).bin" size="42735840" crc="7a51b515" md5="bad9931ca95970fb246577323402655b" sha1="41269dec5691a216ca1cb1d06b0c31529103da30" />

    Cuesheet:

FILE "Mh (Track 1).bin" BINARY
  TRACK 01 MODE1/2352
    INDEX 01 00:00:00
FILE "Mh (Track 2).bin" BINARY
  TRACK 02 AUDIO
    INDEX 00 00:00:00
    INDEX 01 00:02:00
FILE "Mh (Track 3).bin" BINARY
  TRACK 03 AUDIO
    INDEX 00 00:00:00
    INDEX 01 00:01:74
FILE "Mh (Track 4).bin" BINARY
  TRACK 04 AUDIO
    INDEX 00 00:00:00
    INDEX 01 00:01:74
FILE "Mh (Track 5).bin" BINARY
  TRACK 05 AUDIO
    INDEX 00 00:00:00
    INDEX 01 00:01:74
FILE "Mh (Track 6).bin" BINARY
  TRACK 06 AUDIO
    INDEX 00 00:00:00
    INDEX 01 00:01:74
FILE "Mh (Track 7).bin" BINARY
  TRACK 07 AUDIO
    INDEX 00 00:00:00
    INDEX 01 00:01:74

    Write Offset: -22