Match: http://redump.org/disc/35596/
Logs: https://drive.google.com/open?id=1eAAsD … TSG0ZfdPyL

Common Disc Info:
    Title: Requiem: Avenging Angel
    Foreign Title (Non-latin): (OPTIONAL)
    Disc Number / Letter: (OPTIONAL)
    Disc Title: (OPTIONAL)
    System: IBM PC Compatible
    Media Type: CD-ROM
    Category: Games
    Region: Europe
    Languages: English
    Disc Serial: (REQUIRED, IF EXISTS)

    Ringcode Information:
        Mastering Code (laser branded/etched): 5051471   27 MAR 99   MPO   02 @@ 9
        Mastering SID Code: IFPI L032
        Data-Side Mould SID Code: IFPI 1229
        Label-Side Mould SID Code: (REQUIRED, IF EXISTS)
        Additional Mould: (REQUIRED, IF EXISTS)
        Toolstamp or Mastering Code (engraved/stamped): 01
    Barcode: 3 362932 265269
    Error Count: 0
    Comments: [T:ISBN] (OPTIONAL)
    Contents: (OPTIONAL)

Version and Editions:
    Version: (REQUIRED, IF EXISTS)
    Edition/Release: Original

Extras:
    Primary Volume Descriptor (PVD):

0320 : 20 20 20 20 20 20 20 20  20 20 20 20 20 31 39 39                199
0330 : 39 30 33 32 32 31 39 34  32 35 34 30 30 00 31 39   9032219425400.19
0340 : 39 39 30 33 32 32 31 39  34 32 35 34 30 30 00 30   99032219425400.0
0350 : 30 30 30 30 30 30 30 30  30 30 30 30 30 30 30 00   000000000000000.
0360 : 30 30 30 30 30 30 30 30  30 30 30 30 30 30 30 30   0000000000000000
0370 : 00 01 00 00 00 00 00 00  00 00 00 00 00 00 00 00   ................

Copy Protection:
    Copy Protection: P:\_setup\data1.hdr: CD Check, CD Check

Tracks and Write Offsets:
    DAT:

<rom name="REQUIEM (Track 1).bin" size="497605584" crc="2aa6a3ec" md5="3f08d12722d8113a368fefe04886527b" sha1="a0fbcc425bfb3903f55b5ec63ef6bb2f6e74d015" />
<rom name="REQUIEM (Track 2).bin" size="28266336" crc="b00272b4" md5="c755fd50d2fc0c47fe8aa94a13b1f854" sha1="e691c004b6ed9cee311ea3ec9f8544bbe872af5b" />
<rom name="REQUIEM (Track 3).bin" size="37998912" crc="2bfe37b5" md5="2525923535a48e84156e5a9ee6c5b5d5" sha1="b0e5a69ee7b425e859f4b1aef363739310fde9b4" />
<rom name="REQUIEM (Track 4).bin" size="45323040" crc="55e4105d" md5="97814641c079d10a13db34a98d5f5594" sha1="39f720d35f0cc654f82fb81c3e4941e89c8bcef6" />
<rom name="REQUIEM (Track 5).bin" size="37855440" crc="56b52226" md5="73515a66d5e13fcf0f256b30b813c3b2" sha1="83c0f8ff02520e13f437865b629bf2a90af0ada5" />
<rom name="REQUIEM (Track 6).bin" size="39468912" crc="ce28df0a" md5="8b387c4fcebabb79cb249518555fa5a8" sha1="43d8b2748a5e899cd670de498ac7c153ff069a36" />

    Cuesheet:

FILE "REQUIEM (Track 1).bin" BINARY
  TRACK 01 MODE2/2352
    INDEX 01 00:00:00
FILE "REQUIEM (Track 2).bin" BINARY
  TRACK 02 AUDIO
    INDEX 00 00:00:00
    INDEX 01 00:02:00
FILE "REQUIEM (Track 3).bin" BINARY
  TRACK 03 AUDIO
    INDEX 01 00:00:00
FILE "REQUIEM (Track 4).bin" BINARY
  TRACK 04 AUDIO
    INDEX 01 00:00:00
FILE "REQUIEM (Track 5).bin" BINARY
  TRACK 05 AUDIO
    INDEX 01 00:00:00
FILE "REQUIEM (Track 6).bin" BINARY
  TRACK 06 AUDIO
    INDEX 01 00:00:00

    Write Offset: 0