Common Disc Info:
    Title: Super Smash Bros. for Nintendo 3DS/Wii U A Smashing Soundtrack RED
    Disc Number / Letter: RED
    System: Audio CD
    Media Type: CD-ROM
    Category: Soundtrack
    Region: USA
    Languages: English
    Disc Serial: 83690A

    Ringcode Information:
        Mastering Code: 83690AD1    arvato +    + 88449321
        Mastering SID Code: IFPI LY93
        Data-Side Mould SID Code: IFPI 10K1
    Barcode: NOT FOR SALE
    Error Count: Error retrieving error count

Version and Editions:
    Version: Limited Edition
    Edition/Release: Club Nintendo Promo

Extras:
    Primary Volume Descriptor (PVD): Disc has no PVD

Tracks and Write Offsets:
    DAT:

<rom name="Super Smash Bros for Nintendo 3DS Wii U A Smashing Soundtrack RED (Track 01).bin" size="23014320" crc="fa66b415" md5="20df9abf754f7303dca32be3a3c86583" sha1="011a67a4429bfff3ad88e6010f3350c5340fa5d6" />
<rom name="Super Smash Bros for Nintendo 3DS Wii U A Smashing Soundtrack RED (Track 02).bin" size="17858736" crc="c1d328c6" md5="6df4ddfe2daf1a2ad88d4b78487d35f7" sha1="29347f61053561424cad49319c030ff531033746" />
<rom name="Super Smash Bros for Nintendo 3DS Wii U A Smashing Soundtrack RED (Track 03).bin" size="23945712" crc="31a7424f" md5="6228cc603dd1805b5f1fec9458b2fd4d" sha1="edb381a23632fc64289ee5be22b4165b109cf46c" />
<rom name="Super Smash Bros for Nintendo 3DS Wii U A Smashing Soundtrack RED (Track 04).bin" size="21033936" crc="20d4de49" md5="795e86efd0269c1cb4bd01a7ab2cfebe" sha1="03314641829620c39c01b1921f9803fd2c696b92" />
<rom name="Super Smash Bros for Nintendo 3DS Wii U A Smashing Soundtrack RED (Track 05).bin" size="21739536" crc="5ea82970" md5="4de9d18b4257f51b90bddf148caed5d2" sha1="2723910d5a93d7c0ea9139bc3de9976d92210dab" />
<rom name="Super Smash Bros for Nintendo 3DS Wii U A Smashing Soundtrack RED (Track 06).bin" size="27207936" crc="fde54abe" md5="0f113aacd2f74ab85449213221b61111" sha1="88224ef69d0de824eb18bd1121e9a448a438e588" />
<rom name="Super Smash Bros for Nintendo 3DS Wii U A Smashing Soundtrack RED (Track 07).bin" size="23592912" crc="1e322c5d" md5="ef513be7f4bc6cd1cd4f81f1dc931691" sha1="fed8d0666ee6e651caba8cf83a3d232534b85dbc" />
<rom name="Super Smash Bros for Nintendo 3DS Wii U A Smashing Soundtrack RED (Track 08).bin" size="24209136" crc="7f2f55c8" md5="3261aebb092c350664948d1d07f777d6" sha1="fc5f19ef11eb7f19b5043cf4cde904c771a1ae60" />
<rom name="Super Smash Bros for Nintendo 3DS Wii U A Smashing Soundtrack RED (Track 09).bin" size="25796736" crc="feea2810" md5="98c38d8695e3a9c14e74f9138e4c64da" sha1="e62d9d577a7ffc8da48d9caa2eeae4564ad166ac" />
<rom name="Super Smash Bros for Nintendo 3DS Wii U A Smashing Soundtrack RED (Track 10).bin" size="18211536" crc="e58a9f41" md5="c527cffe45411a03b5d9cde6882eb6b2" sha1="dee902223e244cb0c9199a388b30afc9d65ddacb" />
<rom name="Super Smash Bros for Nintendo 3DS Wii U A Smashing Soundtrack RED (Track 11).bin" size="15741936" crc="856d633d" md5="f9f66d0959d4677b00895f9eab791eff" sha1="44cf04fbb3b8abbe7eff121d51b5b11dc0246eee" />
<rom name="Super Smash Bros for Nintendo 3DS Wii U A Smashing Soundtrack RED (Track 12).bin" size="21828912" crc="f998975d" md5="def9a02e8e50fa7a8b2458c8f5299734" sha1="87e77f17e8773c04af4232b1589b3028e24a2d2a" />
<rom name="Super Smash Bros for Nintendo 3DS Wii U A Smashing Soundtrack RED (Track 13).bin" size="13625136" crc="683f7fc6" md5="5125d3489054970f786540034888d57f" sha1="01df61de53c53393123b94cbd4f80ddde9383512" />
<rom name="Super Smash Bros for Nintendo 3DS Wii U A Smashing Soundtrack RED (Track 14).bin" size="23150736" crc="5462a8f8" md5="6ada50a1a56a9cd8c2fda0a51991ee83" sha1="ffc3373afc64004fe29a4dbcad6f3cc604ef8d9e" />
<rom name="Super Smash Bros for Nintendo 3DS Wii U A Smashing Soundtrack RED (Track 15).bin" size="23150736" crc="0dff49be" md5="05fbd7e75db9c3b37bec85558c4bf931" sha1="a0afb7ed1b5efcd2e8d4aa9e0b1c3ae9a63e81b4" />
<rom name="Super Smash Bros for Nintendo 3DS Wii U A Smashing Soundtrack RED (Track 16).bin" size="24032736" crc="0acc4b82" md5="4b6e893ba52fcc51d1963abc4b495902" sha1="a87c20fb6409631b46ca9d80fb1c3eefa804a927" />
<rom name="Super Smash Bros for Nintendo 3DS Wii U A Smashing Soundtrack RED (Track 17).bin" size="22268736" crc="6d28a94b" md5="bbad98a560194b89743115eb4837241a" sha1="aa0b0e7f5126f15ce28ed17549c63265d21518ff" />
<rom name="Super Smash Bros for Nintendo 3DS Wii U A Smashing Soundtrack RED (Track 18).bin" size="24209136" crc="7168cf3b" md5="51abe4f18bcb0fb30afc2d4a8d8682f7" sha1="614e7e45ac2d866b377ca7d764e1196cff3ae402" />
<rom name="Super Smash Bros for Nintendo 3DS Wii U A Smashing Soundtrack RED (Track 19).bin" size="25620336" crc="467da29e" md5="a9d806edda4a8907cbea63777dea4503" sha1="fe03aa8ce5c0b585f59ca84b285857ac1f34d4a7" />
<rom name="Super Smash Bros for Nintendo 3DS Wii U A Smashing Soundtrack RED (Track 20).bin" size="22710912" crc="b237952c" md5="5d2aec1617e80eaed7e0b7280f751787" sha1="b5fbc8a776bc7a95169b3c892d2b2bc9278f0760" />
<rom name="Super Smash Bros for Nintendo 3DS Wii U A Smashing Soundtrack RED (Track 21).bin" size="27031536" crc="7fd0c01a" md5="6249f6b8d8df91d235ab7518670e99bc" sha1="b93b7cc8cd9b4624456615dae46ac8e90a7893e6" />
<rom name="Super Smash Bros for Nintendo 3DS Wii U A Smashing Soundtrack RED (Track 22).bin" size="23679936" crc="7f0ce85a" md5="5a6fa1057bae940c0507db47772b9bc0" sha1="5bb26054a0ab52d05a8d7ec70967ee6d70588ce6" />
<rom name="Super Smash Bros for Nintendo 3DS Wii U A Smashing Soundtrack RED (Track 23).bin" size="24209136" crc="f73334e0" md5="18a24f47ac3712e34a0f0677eb64f1e6" sha1="053ecab39798d890109c42c850c36d3581f97276" />
<rom name="Super Smash Bros for Nintendo 3DS Wii U A Smashing Soundtrack RED (Track 24).bin" size="23240112" crc="44b447af" md5="4bca3f5fac6c0b5af2796a95ad78b350" sha1="0218e695a490d43c604e40847569f0168fc08cf3" />
<rom name="Super Smash Bros for Nintendo 3DS Wii U A Smashing Soundtrack RED (Track 25).bin" size="26325936" crc="b8d90387" md5="4ae689cced3950c1f77e2e09ca8971fe" sha1="08d50bed854e38be33b2462c2e5563a0fc91a937" />
<rom name="Super Smash Bros for Nintendo 3DS Wii U A Smashing Soundtrack RED (Track 26).bin" size="26855136" crc="c541a8fb" md5="7bcdff08ad563bdb6dbdf424b5d412ca" sha1="91eda9aa9ef1e8cefa81e1c38345b2968a5f12ed" />
<rom name="Super Smash Bros for Nintendo 3DS Wii U A Smashing Soundtrack RED (Track 27).bin" size="24298512" crc="389dd2b2" md5="536a85cda9836e0a94fdfe4055814001" sha1="f55a2ea53a75f4e0b376ffa613a8d89607a06136" />
<rom name="Super Smash Bros for Nintendo 3DS Wii U A Smashing Soundtrack RED (Track 28).bin" size="25267536" crc="ecc531c1" md5="8315e8afa60e4fec920a3f7cce6e43b9" sha1="588f1d958eb32f6c59a9edccffe916208b4e9522" />
<rom name="Super Smash Bros for Nintendo 3DS Wii U A Smashing Soundtrack RED (Track 29).bin" size="22621536" crc="a8bb40f7" md5="96eeef9a5e2dfbe0254718c97dd524e5" sha1="235b3adb79d7fdffc08b9ba54eabc03dc804712f" />
<rom name="Super Smash Bros for Nintendo 3DS Wii U A Smashing Soundtrack RED (Track 30).bin" size="23327136" crc="f95348e0" md5="6ac4e1ef25f9c15a15218523353983dc" sha1="1a02e09dcf3e45ec7eedb165ace0925db67ce711" />
<rom name="Super Smash Bros for Nintendo 3DS Wii U A Smashing Soundtrack RED (Track 31).bin" size="21915936" crc="506e1e9b" md5="04a2d9b2fa1784226785d77e11cd933c" sha1="6e8cbed0f0ff63795b3435d7380df4de26311dca" />
<rom name="Super Smash Bros for Nintendo 3DS Wii U A Smashing Soundtrack RED (Track 32).bin" size="22797936" crc="f5db58bb" md5="dcf0df2d96f6ba831035bc2ec071dad0" sha1="b4e8737bdb3afafdb4f02ef8905fb5cb95edaec9" />
<rom name="Super Smash Bros for Nintendo 3DS Wii U A Smashing Soundtrack RED (Track 33).bin" size="27384336" crc="11de08c7" md5="2715e6406eeec5ecf176eb1c2e21d19b" sha1="458ad7aac6e9fb65483a2d768108fc18c75320bb" />
<rom name="Super Smash Bros for Nintendo 3DS Wii U A Smashing Soundtrack RED (Track 34).bin" size="27297312" crc="b10e9825" md5="3fbce2954ce03d726723448bd919c3b4" sha1="d901811e2b54dcb546e8fa7462fe6ea8b94195b9" />
<rom name="Super Smash Bros for Nintendo 3DS Wii U A Smashing Soundtrack RED (Track 35).bin" size="23762256" crc="af65efff" md5="7a2d5cda329ae4f40504adca14614e54" sha1="d98c658355767ef80f02651f5f1734c21d66f490" />
<rom name="Super Smash Bros for Nintendo 3DS Wii U A Smashing Soundtrack RED (Track 36).bin" size="14288400" crc="627d7316" md5="5c2da2333c403ef1751c34163ccbf358" sha1="464da11e4a9417321943fc14c21159613a557301" />

    Cuesheet:

FILE "Super Smash Bros for Nintendo 3DS Wii U A Smashing Soundtrack RED (Track 01).bin" BINARY
  TRACK 01 AUDIO
    INDEX 01 00:00:00
FILE "Super Smash Bros for Nintendo 3DS Wii U A Smashing Soundtrack RED (Track 02).bin" BINARY
  TRACK 02 AUDIO
    INDEX 00 00:00:00
    INDEX 01 00:02:00
FILE "Super Smash Bros for Nintendo 3DS Wii U A Smashing Soundtrack RED (Track 03).bin" BINARY
  TRACK 03 AUDIO
    INDEX 00 00:00:00
    INDEX 01 00:02:00
FILE "Super Smash Bros for Nintendo 3DS Wii U A Smashing Soundtrack RED (Track 04).bin" BINARY
  TRACK 04 AUDIO
    INDEX 00 00:00:00
    INDEX 01 00:02:00
FILE "Super Smash Bros for Nintendo 3DS Wii U A Smashing Soundtrack RED (Track 05).bin" BINARY
  TRACK 05 AUDIO
    INDEX 00 00:00:00
    INDEX 01 00:02:00
FILE "Super Smash Bros for Nintendo 3DS Wii U A Smashing Soundtrack RED (Track 06).bin" BINARY
  TRACK 06 AUDIO
    INDEX 00 00:00:00
    INDEX 01 00:02:00
FILE "Super Smash Bros for Nintendo 3DS Wii U A Smashing Soundtrack RED (Track 07).bin" BINARY
  TRACK 07 AUDIO
    INDEX 00 00:00:00
    INDEX 01 00:02:00
FILE "Super Smash Bros for Nintendo 3DS Wii U A Smashing Soundtrack RED (Track 08).bin" BINARY
  TRACK 08 AUDIO
    INDEX 00 00:00:00
    INDEX 01 00:02:00
FILE "Super Smash Bros for Nintendo 3DS Wii U A Smashing Soundtrack RED (Track 09).bin" BINARY
  TRACK 09 AUDIO
    INDEX 00 00:00:00
    INDEX 01 00:02:00
FILE "Super Smash Bros for Nintendo 3DS Wii U A Smashing Soundtrack RED (Track 10).bin" BINARY
  TRACK 10 AUDIO
    INDEX 00 00:00:00
    INDEX 01 00:02:00
FILE "Super Smash Bros for Nintendo 3DS Wii U A Smashing Soundtrack RED (Track 11).bin" BINARY
  TRACK 11 AUDIO
    INDEX 00 00:00:00
    INDEX 01 00:02:00
FILE "Super Smash Bros for Nintendo 3DS Wii U A Smashing Soundtrack RED (Track 12).bin" BINARY
  TRACK 12 AUDIO
    INDEX 00 00:00:00
    INDEX 01 00:02:00
FILE "Super Smash Bros for Nintendo 3DS Wii U A Smashing Soundtrack RED (Track 13).bin" BINARY
  TRACK 13 AUDIO
    INDEX 00 00:00:00
    INDEX 01 00:02:00
FILE "Super Smash Bros for Nintendo 3DS Wii U A Smashing Soundtrack RED (Track 14).bin" BINARY
  TRACK 14 AUDIO
    INDEX 00 00:00:00
    INDEX 01 00:02:00
FILE "Super Smash Bros for Nintendo 3DS Wii U A Smashing Soundtrack RED (Track 15).bin" BINARY
  TRACK 15 AUDIO
    INDEX 00 00:00:00
    INDEX 01 00:02:00
FILE "Super Smash Bros for Nintendo 3DS Wii U A Smashing Soundtrack RED (Track 16).bin" BINARY
  TRACK 16 AUDIO
    INDEX 00 00:00:00
    INDEX 01 00:02:00
FILE "Super Smash Bros for Nintendo 3DS Wii U A Smashing Soundtrack RED (Track 17).bin" BINARY
  TRACK 17 AUDIO
    INDEX 00 00:00:00
    INDEX 01 00:02:00
FILE "Super Smash Bros for Nintendo 3DS Wii U A Smashing Soundtrack RED (Track 18).bin" BINARY
  TRACK 18 AUDIO
    INDEX 00 00:00:00
    INDEX 01 00:02:00
FILE "Super Smash Bros for Nintendo 3DS Wii U A Smashing Soundtrack RED (Track 19).bin" BINARY
  TRACK 19 AUDIO
    INDEX 00 00:00:00
    INDEX 01 00:02:00
FILE "Super Smash Bros for Nintendo 3DS Wii U A Smashing Soundtrack RED (Track 20).bin" BINARY
  TRACK 20 AUDIO
    INDEX 00 00:00:00
    INDEX 01 00:02:00
FILE "Super Smash Bros for Nintendo 3DS Wii U A Smashing Soundtrack RED (Track 21).bin" BINARY
  TRACK 21 AUDIO
    INDEX 00 00:00:00
    INDEX 01 00:02:00
FILE "Super Smash Bros for Nintendo 3DS Wii U A Smashing Soundtrack RED (Track 22).bin" BINARY
  TRACK 22 AUDIO
    INDEX 00 00:00:00
    INDEX 01 00:02:00
FILE "Super Smash Bros for Nintendo 3DS Wii U A Smashing Soundtrack RED (Track 23).bin" BINARY
  TRACK 23 AUDIO
    INDEX 00 00:00:00
    INDEX 01 00:02:00
FILE "Super Smash Bros for Nintendo 3DS Wii U A Smashing Soundtrack RED (Track 24).bin" BINARY
  TRACK 24 AUDIO
    INDEX 00 00:00:00
    INDEX 01 00:02:00
FILE "Super Smash Bros for Nintendo 3DS Wii U A Smashing Soundtrack RED (Track 25).bin" BINARY
  TRACK 25 AUDIO
    INDEX 00 00:00:00
    INDEX 01 00:02:00
FILE "Super Smash Bros for Nintendo 3DS Wii U A Smashing Soundtrack RED (Track 26).bin" BINARY
  TRACK 26 AUDIO
    INDEX 00 00:00:00
    INDEX 01 00:02:00
FILE "Super Smash Bros for Nintendo 3DS Wii U A Smashing Soundtrack RED (Track 27).bin" BINARY
  TRACK 27 AUDIO
    INDEX 00 00:00:00
    INDEX 01 00:02:00
FILE "Super Smash Bros for Nintendo 3DS Wii U A Smashing Soundtrack RED (Track 28).bin" BINARY
  TRACK 28 AUDIO
    INDEX 00 00:00:00
    INDEX 01 00:02:00
FILE "Super Smash Bros for Nintendo 3DS Wii U A Smashing Soundtrack RED (Track 29).bin" BINARY
  TRACK 29 AUDIO
    INDEX 00 00:00:00
    INDEX 01 00:02:00
FILE "Super Smash Bros for Nintendo 3DS Wii U A Smashing Soundtrack RED (Track 30).bin" BINARY
  TRACK 30 AUDIO
    INDEX 00 00:00:00
    INDEX 01 00:02:00
FILE "Super Smash Bros for Nintendo 3DS Wii U A Smashing Soundtrack RED (Track 31).bin" BINARY
  TRACK 31 AUDIO
    INDEX 00 00:00:00
    INDEX 01 00:02:00
FILE "Super Smash Bros for Nintendo 3DS Wii U A Smashing Soundtrack RED (Track 32).bin" BINARY
  TRACK 32 AUDIO
    INDEX 00 00:00:00
    INDEX 01 00:02:00
FILE "Super Smash Bros for Nintendo 3DS Wii U A Smashing Soundtrack RED (Track 33).bin" BINARY
  TRACK 33 AUDIO
    INDEX 00 00:00:00
    INDEX 01 00:02:00
FILE "Super Smash Bros for Nintendo 3DS Wii U A Smashing Soundtrack RED (Track 34).bin" BINARY
  TRACK 34 AUDIO
    INDEX 00 00:00:00
    INDEX 01 00:02:00
FILE "Super Smash Bros for Nintendo 3DS Wii U A Smashing Soundtrack RED (Track 35).bin" BINARY
  TRACK 35 AUDIO
    INDEX 00 00:00:00
    INDEX 01 00:02:00
FILE "Super Smash Bros for Nintendo 3DS Wii U A Smashing Soundtrack RED (Track 36).bin" BINARY
  TRACK 36 AUDIO
    INDEX 00 00:00:00
    INDEX 01 00:02:00

    Write Offset: 0

If you require logs ask me on Discord