Title: Dodonpachi
Disc Number / Letter:
Disc Title:
System: Sega Saturn
Media Type: CD-ROM
Category: Games
Region: Japan
Languages: Japanese
Disc Serial: T-14424G
Build Date: 1997-08-04
Ringcode Information:
    Mastering Code (laser branded/etched): T-14419GP-01786-P1K     V
    Mastering SID Code: IFPI L237
    Data-Side Mould SID Code:
    Label-Side Mould SID Code: IFPI 4011
    Additional Mould:
    Toolstamp or Mastering Code (engraved/stamped): 2
Barcode: 4 984995 800226
Error Count: 0
Comments:
Contents:
Version: V1.002
Edition/Release: Satakore
Header:

0000 : 53 45 47 41 20 53 45 47  41 53 41 54 55 52 4E 20   SEGA SEGASATURN
0010 : 53 45 47 41 20 54 50 20  54 2D 31 34 34 20 20 20   SEGA TP T-144   
0020 : 54 2D 31 34 34 31 39 47  20 20 56 31 2E 30 30 32   T-14419G  V1.002
0030 : 31 39 39 37 30 38 30 34  43 44 2D 31 2F 31 20 20   19970804CD-1/1 
0040 : 4A 20 20 20 20 20 20 20  20 20 20 20 20 20 20 20   J               
0050 : 4A 20 20 20 20 20 20 20  20 20 20 20 20 20 20 20   J               
0060 : 44 4F 44 4F 4E 50 41 43  48 49 20 20 20 20 20 20   DODONPACHI     
0070 : 20 20 20 20 20 20 20 20  20 20 20 20 20 20 20 20                   
0080 : 20 20 20 20 20 20 20 20  20 20 20 20 20 20 20 20                   
0090 : 20 20 20 20 20 20 20 20  20 20 20 20 20 20 20 20                   
00A0 : 20 20 20 20 20 20 20 20  20 20 20 20 20 20 20 20                   
00B0 : 20 20 20 20 20 20 20 20  20 20 20 20 20 20 20 20                   
00C0 : 20 20 20 20 20 20 20 20  20 20 20 20 20 20 20 20                   
00D0 : 00 00 00 00 00 00 00 00  00 00 00 00 00 00 00 00   ................
00E0 : 00 00 12 7C 00 00 00 00  00 00 00 00 00 00 00 00   ...|............
00F0 : 06 00 40 00 00 00 00 00  00 00 00 00 00 00 00 00   ..@.............

Primary Volume Descriptor (PVD):

0320 : 20 20 20 20 20 20 20 20  20 20 20 20 20 31 39 39                199
0330 : 37 30 38 30 34 31 35 31  33 30 30 30 30 14 31 39   7080415130000.19
0340 : 39 37 30 38 30 34 31 35  31 33 30 30 30 30 14 30   97080415130000.0
0350 : 30 30 30 30 30 30 30 30  30 30 30 30 30 30 30 00   000000000000000.
0360 : 30 30 30 30 30 30 30 30  30 30 30 30 30 30 30 30   0000000000000000
0370 : 00 01 00 00 00 00 00 00  00 00 00 00 00 00 00 00   ................

DAT:

<rom name="DODONPACHI (Track 01).bin" size="27254976" crc="5763b66c" md5="52a1db1f0a2f60b8dc19e96a0ef39203" sha1="3dbfc75ba3cac58b06d1185bf9d804ec17c9cad7" />
<rom name="DODONPACHI (Track 02).bin" size="9723168" crc="24c92147" md5="9ea5da3f5355ba5fab21d8585a7d6621" sha1="cdf4cc72c9e7fa4f6390e2819b7b6ca4b26da7ba" />
<rom name="DODONPACHI (Track 03).bin" size="63529872" crc="842e950e" md5="6976ecfddf36198c62de0af67ea228eb" sha1="742332ffd71302951bccbcb2f9dc3f57ff3a64cd" />
<rom name="DODONPACHI (Track 04).bin" size="75139344" crc="11e6d8ee" md5="c583e99cc715f05e90232f729a526759" sha1="78ace16564bdde44f622dbd9627ce466d0ae9cdc" />
<rom name="DODONPACHI (Track 05).bin" size="65028096" crc="0e62ca31" md5="6bb6d549a550ddeb4a834515773b2e2f" sha1="f986044c5c4de304d4fd6b479439c454731fcf4e" />
<rom name="DODONPACHI (Track 06).bin" size="66385200" crc="e7e3b117" md5="0dfaad6f33868d09068f69627c7cffe0" sha1="56c2d48207ab6425bc89b401a5f35e127ddb20f5" />
<rom name="DODONPACHI (Track 07).bin" size="69859104" crc="0bedf7d0" md5="02d89b574bf0261378f89d88ab60f326" sha1="943d65bfd100a4b9c8b04cee7041a4118f1eee63" />
<rom name="DODONPACHI (Track 08).bin" size="69144096" crc="ccf0a7d4" md5="ad7e243f55b7945c6a145ef7c2f07df0" sha1="925f11d5238f24406bc391c4b496a735db1184c7" />
<rom name="DODONPACHI (Track 09).bin" size="16005360" crc="6f07ffa7" md5="39788c56f8f31ff16364e0d36b014adf" sha1="e4947d4c224d373e0e0b05ee30bdb89ab21b1b32" />
<rom name="DODONPACHI (Track 10).bin" size="16231152" crc="8d346737" md5="50ea32372d82349865bbcec803fc7c3f" sha1="cc931bb8d99b738a87f83cddc0f7ff25181308cd" />
<rom name="DODONPACHI (Track 11).bin" size="24265584" crc="0a5c1fa4" md5="6eea2f429c79a57471545b1397526c49" sha1="cd8bc0576a72b7d6b69cb2db12fb2de3bab30a1b" />
<rom name="DODONPACHI (Track 12).bin" size="10847424" crc="93ca0c63" md5="65893b90fd50ca3a8183debbec17cdda" sha1="f5ee44bf6bd48ce7265fe65aa7e7e105a7be50b3" />
<rom name="DODONPACHI (Track 13).bin" size="17124912" crc="c314e7ab" md5="59b57004536dd64fc58b08cf64a76307" sha1="e01fa9ff55c5533af4c1675d9524e946523a9410" />

Cuesheet:

CATALOG 0000000000000
FILE "DODONPACHI (Track 01).bin" BINARY
  TRACK 01 MODE1/2352
    INDEX 01 00:00:00
FILE "DODONPACHI (Track 02).bin" BINARY
  TRACK 02 AUDIO
    INDEX 00 00:00:00
    INDEX 01 00:02:00
FILE "DODONPACHI (Track 03).bin" BINARY
  TRACK 03 AUDIO
    INDEX 00 00:00:00
    INDEX 01 00:01:74
FILE "DODONPACHI (Track 04).bin" BINARY
  TRACK 04 AUDIO
    INDEX 00 00:00:00
    INDEX 01 00:01:74
FILE "DODONPACHI (Track 05).bin" BINARY
  TRACK 05 AUDIO
    INDEX 00 00:00:00
    INDEX 01 00:01:74
FILE "DODONPACHI (Track 06).bin" BINARY
  TRACK 06 AUDIO
    INDEX 00 00:00:00
    INDEX 01 00:01:74
FILE "DODONPACHI (Track 07).bin" BINARY
  TRACK 07 AUDIO
    INDEX 00 00:00:00
    INDEX 01 00:01:74
FILE "DODONPACHI (Track 08).bin" BINARY
  TRACK 08 AUDIO
    INDEX 00 00:00:00
    INDEX 01 00:01:74
FILE "DODONPACHI (Track 09).bin" BINARY
  TRACK 09 AUDIO
    INDEX 00 00:00:00
    INDEX 01 00:01:74
FILE "DODONPACHI (Track 10).bin" BINARY
  TRACK 10 AUDIO
    INDEX 00 00:00:00
    INDEX 01 00:01:74
FILE "DODONPACHI (Track 11).bin" BINARY
  TRACK 11 AUDIO
    INDEX 00 00:00:00
    INDEX 01 00:01:74
FILE "DODONPACHI (Track 12).bin" BINARY
  TRACK 12 AUDIO
    INDEX 00 00:00:00
    INDEX 01 00:01:74
FILE "DODONPACHI (Track 13).bin" BINARY
  TRACK 13 AUDIO
    INDEX 00 00:00:00
    INDEX 01 00:01:74

Write Offset: 390

https://megaupload.nz/mbacpey3n5/DODONPACHI_7z

LastCat wrote:

Toolstamp or Mastering Code (engraved/stamped): 2

Always 2 symbols.