1 (edited by Aringon 2019-08-23 04:52:58)

Common Disc Info:
    Title: Tomb Raider Gold Eidos Platinum Collection DISC 1
    Disc Number / Letter: Disc 1
    System: IBM PC Compatible
    Media Type: CD-ROM
    Category: Games
    Region: USA
    Languages: English
    Disc Serial: None

    Ringcode Information:
        Mastering Code (laser branded/etched): 021900-1-1    AV/CA 386892    *386892*
        Mastering SID Code: IFPI L451
        Data-Side Mould SID Code: IFPI 4Q01
        Label-Side Mould SID Code: None
        Additional Mould: VDms/CA
        Toolstamp or Mastering Code (engraved/stamped): None
    Error Count: 0
    Comments: [T:ISBN]
    Contents: 

Version and Editions:
    Version: 
    Edition/Release: Rerelease?

Extras:
    Primary Volume Descriptor (PVD):

0320 : 20 20 20 20 20 20 20 20  20 20 20 20 20 32 30 30                200
0330 : 30 30 32 30 37 31 34 32  34 34 35 30 30 00 32 30   0020714244500.20
0340 : 30 30 30 32 30 37 31 34  32 34 34 35 30 30 00 32   00020714244500.2
0350 : 30 31 30 30 32 30 34 31  34 32 34 34 35 30 30 00   010020414244500.
0360 : 32 30 30 30 30 32 30 37  31 34 32 34 34 35 30 30   2000020714244500
0370 : 00 01 00 00 00 00 00 00  00 00 00 00 00 00 00 00   ................

Copy Protection:
    Copy Protection: None found

Tracks and Write Offsets:
    DAT:

<rom name="TRG1 (Track 01).bin" size="225116976" crc="36047dc3" md5="c9d205c2f322e8ea577672f2cf3fcbd6" sha1="05d6ff0d7d75205d8c14705e4e10cd0316bdaf24" />
<rom name="TRG1 (Track 02).bin" size="35042448" crc="cead5421" md5="6e51176d6a29ee674c7cfbcd8d345887" sha1="89ced666772e26e89db84e89b14b921822eff471" />
<rom name="TRG1 (Track 03).bin" size="21560784" crc="35bfb7b9" md5="a24c9d4779858256c39353595613301f" sha1="935a9f2aaf7de1a33198d320b81364966bceec62" />
<rom name="TRG1 (Track 04).bin" size="32664576" crc="a613a761" md5="e37022cb5fba262a1985eefa25e61248" sha1="88b729cd4c0877c7c20744c0a59b8bc9d97c1c20" />
<rom name="TRG1 (Track 05).bin" size="33661824" crc="713db8a3" md5="1ca4040cfd993c4482ea426e0c0d8869" sha1="e64f7952c531f41ae0cf07218f4bd98c6836a02c" />
<rom name="TRG1 (Track 06).bin" size="33459552" crc="e662397b" md5="49fe36d15b8ab56bef342f2c00569807" sha1="0bf1e928b154b2a4ad581f712eb2d2140fd66a25" />
<rom name="TRG1 (Track 07).bin" size="11569488" crc="aa43a16a" md5="ff8250f24585ed6869eeafa612dd7877" sha1="35575f5422f944463945419401acb2ad9aeac1d4" />
<rom name="TRG1 (Track 08).bin" size="10525200" crc="2bd41a6c" md5="2987a6c52f322c07937bfef0b90af58c" sha1="50f85389b8f55a954826d24b4ebdeefccb007687" />
<rom name="TRG1 (Track 09).bin" size="3078768" crc="e69999bd" md5="eac37b8ba102918f1101dcc03412c6bb" sha1="a481bd6f945c4e712a3d14c17105132435cfbbf6" />
<rom name="TRG1 (Track 10).bin" size="6865488" crc="16e51353" md5="2f014d32030b7eb5ffb9085c8039566b" sha1="2c3e4e9469df817d29cf99ad8a2867fc0f2ecc28" />

    Cuesheet:

FILE "TRG1 (Track 01).bin" BINARY
  TRACK 01 MODE1/2352
    INDEX 01 00:00:00
FILE "TRG1 (Track 02).bin" BINARY
  TRACK 02 AUDIO
    INDEX 00 00:00:00
    INDEX 01 00:02:00
FILE "TRG1 (Track 03).bin" BINARY
  TRACK 03 AUDIO
    INDEX 00 00:00:00
    INDEX 01 00:02:00
FILE "TRG1 (Track 04).bin" BINARY
  TRACK 04 AUDIO
    INDEX 00 00:00:00
    INDEX 01 00:02:00
FILE "TRG1 (Track 05).bin" BINARY
  TRACK 05 AUDIO
    INDEX 00 00:00:00
    INDEX 01 00:02:00
FILE "TRG1 (Track 06).bin" BINARY
  TRACK 06 AUDIO
    INDEX 00 00:00:00
    INDEX 01 00:02:00
FILE "TRG1 (Track 07).bin" BINARY
  TRACK 07 AUDIO
    INDEX 00 00:00:00
    INDEX 01 00:02:00
FILE "TRG1 (Track 08).bin" BINARY
  TRACK 08 AUDIO
    INDEX 00 00:00:00
    INDEX 01 00:02:00
FILE "TRG1 (Track 09).bin" BINARY
  TRACK 09 AUDIO
    INDEX 00 00:00:00
    INDEX 01 00:02:00
FILE "TRG1 (Track 10).bin" BINARY
  TRACK 10 AUDIO
    INDEX 00 00:00:00
    INDEX 01 00:02:00

    Write Offset: -22
Post's attachments

TRG1.7z 1.51 mb, file has never been downloaded. 

You don't have the permssions to download the attachments of this post.