1 (edited by RexPearce 2019-07-30 11:35:42)

Title: Shattered Steel
Disc Number / Letter: (OPTIONAL)
Disc Title: (OPTIONAL)
System: IBM PC Compatible
Media Type: CD-ROM
Category: Games
Region: America
Languages: English
Disc Serial: CD-ICD-201-0
Ringcode Information:
    Mastering Ring: IPC COMMUNICATIONS SERVICES   C2 115993-01   *CA27207
    Mastering SID Code: IFPI L892
    Mould SID Code: IFPI 3L1U
    Additional Mould: (REQUIRED, IF EXISTS)
    Toolstamp or Mastering Code: (REQUIRED, IF EXISTS)
Barcode: (OPTIONAL)
ISBN: (OPTIONAL)
Error Count: 0
Comments: (OPTIONAL)
Contents: (OPTIONAL)
Version: 1.0
Edition/Release: Original
Primary Volume Descriptor (PVD):

0320 : 20 20 20 20 20 20 20 20  20 20 20 20 20 31 39 39                199
0330 : 36 30 39 32 33 30 37 30  31 32 33 00 00 04 31 39   60923070123...19
0340 : 39 36 30 39 32 33 30 37  30 31 32 33 00 00 04 32   960923070123...2
0350 : 39 39 36 30 39 32 33 30  37 30 31 32 31 00 00 04   9960923070121...
0360 : 31 39 39 36 30 39 32 33  30 37 30 31 32 31 00 00   19960923070121..
0370 : 04 01 00 00 00 00 00 00  00 00 00 00 00 00 00 00   ................

Copy Protection: None found

Cuesheet:

FILE "SSTEEL (Track 01).bin" BINARY
  TRACK 01 MODE1/2352
    INDEX 01 00:00:00
FILE "SSTEEL (Track 02).bin" BINARY
  TRACK 02 AUDIO
    INDEX 00 00:00:00
    INDEX 01 00:02:00
FILE "SSTEEL (Track 03).bin" BINARY
  TRACK 03 AUDIO
    INDEX 00 00:00:00
    INDEX 01 00:02:00
FILE "SSTEEL (Track 04).bin" BINARY
  TRACK 04 AUDIO
    INDEX 00 00:00:00
    INDEX 01 00:02:00
FILE "SSTEEL (Track 05).bin" BINARY
  TRACK 05 AUDIO
    INDEX 00 00:00:00
    INDEX 01 00:02:00
FILE "SSTEEL (Track 06).bin" BINARY
  TRACK 06 AUDIO
    INDEX 00 00:00:00
    INDEX 01 00:02:00
FILE "SSTEEL (Track 07).bin" BINARY
  TRACK 07 AUDIO
    INDEX 00 00:00:00
    INDEX 01 00:02:00
FILE "SSTEEL (Track 08).bin" BINARY
  TRACK 08 AUDIO
    INDEX 00 00:00:00
    INDEX 01 00:02:00
FILE "SSTEEL (Track 09).bin" BINARY
  TRACK 09 AUDIO
    INDEX 00 00:00:00
    INDEX 01 00:02:00
FILE "SSTEEL (Track 10).bin" BINARY
  TRACK 10 AUDIO
    INDEX 00 00:00:00
    INDEX 01 00:02:00
FILE "SSTEEL (Track 11).bin" BINARY
  TRACK 11 AUDIO
    INDEX 00 00:00:00
    INDEX 01 00:02:00
FILE "SSTEEL (Track 12).bin" BINARY
  TRACK 12 AUDIO
    INDEX 00 00:00:00
    INDEX 01 00:02:00
FILE "SSTEEL (Track 13).bin" BINARY
  TRACK 13 AUDIO
    INDEX 00 00:00:00
    INDEX 01 00:02:00

Write Offset: -22

DAT:

<rom name="SSTEEL (Track 01).bin" size="402563616" crc="f709ded4" md5="3eac60d4e2f5c0c47a231fb2acb18dc7" sha1="9784c982fc6ff7af132ebffd8ca4c196b65e4e09" />
<rom name="SSTEEL (Track 02).bin" size="14817600" crc="73129fb9" md5="9eed54ec49f5a32398a797f1238604f1" sha1="5e2ad259e3a00dfa04b3d2436cac4f53b1613689" />
<rom name="SSTEEL (Track 03).bin" size="11113200" crc="51f4f8af" md5="982bd63eeeb4a299c44bd31521f5dc01" sha1="8b0a709a5a9522c242aa80ea11b68db9dc37c2ce" />
<rom name="SSTEEL (Track 04).bin" size="30870000" crc="f3655e1a" md5="c4cdc4a54db72d77613af299cae13164" sha1="bbd89bb4f78ed854eb4e95e4e8fd45aa39277f90" />
<rom name="SSTEEL (Track 05).bin" size="32457600" crc="1af4735d" md5="b97553f3dd4e3c113ca202e9a4335749" sha1="5cb07074183a866c8db86d7487f29aece57bfe91" />
<rom name="SSTEEL (Track 06).bin" size="35280000" crc="a54a66d8" md5="d06ccdab3caf2564194370fb6c748929" sha1="3f7ae84a5fecb711cedba16d705249fa51f70d49" />
<rom name="SSTEEL (Track 07).bin" size="43218000" crc="4216f47b" md5="507d455799472fd1c9ad55a433fc3002" sha1="9d931e7ff0067d1e6f6f43dd1256c51efe12f9b5" />
<rom name="SSTEEL (Track 08).bin" size="29635200" crc="0d0bb0e2" md5="172713ed597c752b9ef8062cc8698620" sha1="3bb05149205fbb76caa75aa4ecea383857fb8bb1" />
<rom name="SSTEEL (Track 09).bin" size="35103600" crc="ad3b139f" md5="f6fc1185fc682bd98f1a9c7aaf5eb4a5" sha1="7ed12c5cb2f2a3f237f7e33fa6e9131eab629911" />
<rom name="SSTEEL (Track 10).bin" size="31928400" crc="74413497" md5="32e88a5d27ab379e1648b1daa14c61d9" sha1="1b7cb89134ff91441bdae5cfcf278ed7944c6098" />
<rom name="SSTEEL (Track 11).bin" size="23637600" crc="c667e4be" md5="f7f18a214e76941ea1c164d7c446018d" sha1="2eea61bea7b32a8f9aa731a14eeeded0c1a7045d" />
<rom name="SSTEEL (Track 12).bin" size="41101200" crc="f793e888" md5="c8ea215eca43a6b1138abc7baa5b9b68" sha1="a2ad1121b543e92358f6ac8e3f7d5dd2d1ac531e" />
<rom name="SSTEEL (Track 13).bin" size="34398000" crc="9204a492" md5="caf163b7415ab1ef2e3929971e81a502" sha1="11c9560446c8ad2453fbad1d223eac4a2482b63e" />

Dump logs: [updated link in comment below]

Note: Dump logs are no longer available.

Seems I missed the logs for this one, can you upload again.

Also please check the ring, there should be tabs in it.

Plextor PX-760A 1.07 (+30) : Plextor PX-716SA 1.11 (+30) : Plextor PX-W5224A 1.04 (+30) : Plextor PX-W4824 1.07 (+30) : Plextor PX-W4012TA 1.07 (+98) : Plextor PX-W1610TA (+99) : Plextor PX-W1210TA 1.10 (+99) : Lite-On LTR-48246S (+6) : Lite-On LTR-52246S (+6) : Lite-On LH-20A1H LL0DN (+6) : BenQ DW1655 BCIB (+618) : ASUS DRW-2014L1 1.02 (+6) : Yamaha CRW-F1 (+733) : Optiarc SA-7290H5 1H44 (+48) : ASUS BW-16D1HT 3.02 (+6)