iR0b0t wrote:
Jackal wrote:

@iR0b0t will the disc page show that it's a multisession disc? or do we need to add a comment

It will be visible on the disc page, no need for the comments.

Is that okay the current way it is?
http://redump.org/disc/63778/

PX-760A (+30), PX-W4824TA (+98), GSA-H42L (+667), GDR-8164B (+102), SH-D162D (+6), SOHD-167T (+12)

102

Better, page shows info now too. Downloaded cue still missing extra REM lines for lead in/out and pregap.

Plextor PX-760A 1.07 (+30) : Plextor PX-716SA 1.11 (+30) : Plextor PX-W5224A 1.04 (+30) : Plextor PX-W4824 1.07 (+30) : Plextor PX-W4012TA 1.07 (+98) : Plextor PX-W1610TA (+99) : Plextor PX-W1210TA 1.10 (+99) : Lite-On LTR-48246S (+6) : Lite-On LTR-52246S (+6) : Lite-On LH-20A1H LL0DN (+6) : BenQ DW1655 BCIB (+618) : ASUS DRW-2014L1 1.02 (+6) : Yamaha CRW-F1 (+733) : Optiarc SA-7290H5 1H44 (+48) : ASUS BW-16D1HT 3.02 (+6)

103 (edited by Jackal 2019-07-27 18:43:23)

I think we are in agreement that the Redump site can store the complete cuesheet, but it should only include the REM SESSION lines in the download .cue (and exclude the REM LEAD-OUT, REM LEAD-IN, REM PREGAP because they are standard values that should be the same always

Please hide the Lead-in, Lead-out, Pregap, Disc total lines from the disc page and exclude them from the .cue download as discussed before.

@Jackal, all the extra lines beside "session number" are excluded from the cue downloads.

I will exclude them from being shown on the disc page, no problem.
The thing is just, i remember that somebody was wanting them to be shown and the disc total length to be calculated.

PX-760A (+30), PX-W4824TA (+98), GSA-H42L (+667), GDR-8164B (+102), SH-D162D (+6), SOHD-167T (+12)

I dont know for what purpose we would the disc total. Dreamcast didn't need it either.

@Nexy, the Carnivores dump seems to be missing the INDEX 01 for Track02. Can you try opening the .bin (without the .cue) as Mode2/2352 and see if it opens and shows the contents?

106

Looks fine to me

REM SESSION 01
FILE "Carnivores (USA) (Track 1).bin" BINARY
  TRACK 01 MODE2/2352
    INDEX 01 00:00:00
REM SESSION 02
FILE "Carnivores (USA) (Track 2).bin" BINARY
  TRACK 02 MODE2/2352
    INDEX 01 00:00:00

I don't necessarily agree with removing the comments, there's no guarantee that standards are used, particularly with PC. Better to futureproof it in my opinion, since it's possible that some protection may put something in a huge pre-gap or something. There's no rule book that says things have to follow standard, they clearly don't on uncountable occasions.

Plextor PX-760A 1.07 (+30) : Plextor PX-716SA 1.11 (+30) : Plextor PX-W5224A 1.04 (+30) : Plextor PX-W4824 1.07 (+30) : Plextor PX-W4012TA 1.07 (+98) : Plextor PX-W1610TA (+99) : Plextor PX-W1210TA 1.10 (+99) : Lite-On LTR-48246S (+6) : Lite-On LTR-52246S (+6) : Lite-On LH-20A1H LL0DN (+6) : BenQ DW1655 BCIB (+618) : ASUS DRW-2014L1 1.02 (+6) : Yamaha CRW-F1 (+733) : Optiarc SA-7290H5 1H44 (+48) : ASUS BW-16D1HT 3.02 (+6)

107 (edited by Jackal 2019-07-28 06:55:30)

We agreed to hide it until we find a disc that has different standards.

All the discs so far, including Bleemcast, have the same lead-out, lead-in, pregap lengths between sessions. They are formally specified in official documents, so it's unlikely that a disc will deviate from it.

108 (edited by Jackal 2019-07-28 10:28:37)

@iR0b0t, maybe you can add type = Single-Density Area + High-Density Area to the disc page of Dreamcast discs? the same way as is done with Multisession discs.

ps. I've updated (hopefully) all the existing Multisession discs to have the correct cuesheets and comments: http://redump.org/discs/quicksearch/ses … ents/only/

Jackal wrote:
iR0b0t wrote:

This topic is done so far, I only have to update the newdisc form.

Yes, but plz answer my question about the Dreamcast discs

I did it already when i wrote my message, I mean the extra lines on Dreamcast discs should be visible.

PX-760A (+30), PX-W4824TA (+98), GSA-H42L (+667), GDR-8164B (+102), SH-D162D (+6), SOHD-167T (+12)

Jackal wrote:

I don't like the text "SD AREA" & "HD AREA". Can you change it to "Area", and the full text is too long?

Made it full text.

PX-760A (+30), PX-W4824TA (+98), GSA-H42L (+667), GDR-8164B (+102), SH-D162D (+6), SOHD-167T (+12)

Do we have a pending multisession entry to be added?

The newdisc script is ready, i want to test it.

If there is no other submission than this http://forum.redump.org/topic/23287/pc-multisession-x1/ then i will add that, but it would be better if dumper will submit it via newdisc form for advanced testing purposes.

PX-760A (+30), PX-W4824TA (+98), GSA-H42L (+667), GDR-8164B (+102), SH-D162D (+6), SOHD-167T (+12)

I have submitted one multi session coverdisk (Max Kids 2/2009)...

reentrant wrote:

I have submitted one multi session coverdisk (Max Kids 2/2009)...

Did you submit the full cuesheet in its corresponding field?

PX-760A (+30), PX-W4824TA (+98), GSA-H42L (+667), GDR-8164B (+102), SH-D162D (+6), SOHD-167T (+12)

Yep, one in cue field and copied to comments iirc. Was adding it few days ago...

Ah, it does not help right now, i wanted it to be freshly submitted.

PX-760A (+30), PX-W4824TA (+98), GSA-H42L (+667), GDR-8164B (+102), SH-D162D (+6), SOHD-167T (+12)

116

iRobot, does this help? http://forum.redump.org/topic/23287/pc-multisession-x1/

If you can submit it via newdisc form, yes.

PX-760A (+30), PX-W4824TA (+98), GSA-H42L (+667), GDR-8164B (+102), SH-D162D (+6), SOHD-167T (+12)

118

Submitted.

user7 wrote:

Submitted.

Did you submit the full cuesheet? If yes i will have to look into it again.

PX-760A (+30), PX-W4824TA (+98), GSA-H42L (+667), GDR-8164B (+102), SH-D162D (+6), SOHD-167T (+12)

120

REM SESSION 01
FILE "Acclaim_At_ECTS_ (Track 1).bin" BINARY
  TRACK 01 AUDIO
    INDEX 01 00:00:00
FILE "Acclaim_At_ECTS_ (Track 2).bin" BINARY
  TRACK 02 AUDIO
    INDEX 00 00:00:00
    INDEX 01 00:02:00
FILE "Acclaim_At_ECTS_ (Track 3).bin" BINARY
  TRACK 03 AUDIO
    INDEX 00 00:00:00
    INDEX 01 00:02:00
FILE "Acclaim_At_ECTS_ (Track 4).bin" BINARY
  TRACK 04 AUDIO
    INDEX 00 00:00:00
    INDEX 01 00:02:00
FILE "Acclaim_At_ECTS_ (Track 5).bin" BINARY
  TRACK 05 AUDIO
    INDEX 00 00:00:00
    INDEX 01 00:02:00
FILE "Acclaim_At_ECTS_ (Track 6).bin" BINARY
  TRACK 06 AUDIO
    INDEX 00 00:00:00
    INDEX 01 00:02:00
FILE "Acclaim_At_ECTS_ (Track 7).bin" BINARY
  TRACK 07 AUDIO
    INDEX 00 00:00:00
    INDEX 01 00:02:00
REM LEAD-OUT 00:00:00
REM SESSION 02
REM LEAD-IN 00:00:00
REM PREGAP 00:00:00
FILE "Acclaim_At_ECTS_ (Track 8).bin" BINARY
  TRACK 08 MODE2/2352
    INDEX 01 00:00:00

This is what was submitted.

Okay, thanks.

PX-760A (+30), PX-W4824TA (+98), GSA-H42L (+667), GDR-8164B (+102), SH-D162D (+6), SOHD-167T (+12)

It should be fixed now.

PX-760A (+30), PX-W4824TA (+98), GSA-H42L (+667), GDR-8164B (+102), SH-D162D (+6), SOHD-167T (+12)

Newdisc form works now, confirmed!

PX-760A (+30), PX-W4824TA (+98), GSA-H42L (+667), GDR-8164B (+102), SH-D162D (+6), SOHD-167T (+12)

124

Thank you iRobot, here's my updated cue dumped with /ms: http://forum.redump.org/post/72070/#p72070

How long before we can add Mil-CD? Thanks!

user7 wrote:

How long before we can add Mil-CD? Thanks!

Added.

There are still some open questions though:
http://forum.redump.org/post/72086/#p72086

PX-760A (+30), PX-W4824TA (+98), GSA-H42L (+667), GDR-8164B (+102), SH-D162D (+6), SOHD-167T (+12)