Title: Thunder Cross - Konami Kukeiha Club
Disc Number / Letter:
Disc Title:
System: Audio CD
Media Type: CD-ROM
Category: Extra
Region: Japan
Languages: Japanese
Disc Serial: 276A7703
Ringcode Information:
    Mastering Code (laser branded/etched): 276A-7703     1
    Mastering SID Code:
    Data-Side Mould SID Code:
    Label-Side Mould SID Code: CSR
    Additional Mould:
    Toolstamp or Mastering Code (engraved/stamped):
Barcode: 4 988003 062408
Error Count: 0
Comments:
Contents:
1. Skywalker (2st BGM)
2. The Thunder Fighters
3. First Attack (1st BGM)
4. Skywalker (2nd BGM)
5. Machine Graveyard (3st BGM)
6. Great Battleship (4st BGM)
7. Endless Labrynth (5st BGM)
8. Fire Cavern (6st BGM)
9. Final Base (7st BGM)
10. Gloidential Mechanism
11. Stage Clear
12. Ranking
13. Game Over
14.A Long Way
15. Final Command A-JAX
16. Cross Fire
17. Long Way To Danger
18. It's Hard Way In The Suburbs
19. Make Me Dynamic
20. The Navigation On The Bridge
21. Ice Won't Let Me Go
22. And Only I Did My Duty
23. Soldier's Paths
24. Finally I Belong To
25. Just I've Done It
26. After The Terrible Running
27. Farewell

Version:
Edition/Release: Original
Primary Volume Descriptor (PVD):

Disc has no PVD
DAT:

<rom name="Thunder Cross OST (Track 01).bin" size="43429680" crc="0244b753" md5="22844e7469913539f0572941ad4c5fd2" sha1="7496168327daedf80e630f7f06de67748fba9a37" />
<rom name="Thunder Cross OST (Track 02).bin" size="1552320" crc="c6bcc3ec" md5="f0c3f059de99a706d721870ce5fac673" sha1="8dd330973a1b62d15d02408b0a19e78984526a06" />
<rom name="Thunder Cross OST (Track 03).bin" size="22960224" crc="5714edb5" md5="a754ed075624f59fbcf2be7a939a55a6" sha1="2e23f70758cf99826bf0ddb36222b12f7706bccf" />
<rom name="Thunder Cross OST (Track 04).bin" size="19427520" crc="28b9c558" md5="580de3df175e1a236c214dd0d8f19e3f" sha1="4f5cd538167f778d817c4a8c71dcca2f3b1e0409" />
<rom name="Thunder Cross OST (Track 05).bin" size="13230000" crc="e3f5637a" md5="844b69ec08a8479af3cd5945ba35e2c7" sha1="ea043d3e442b1439c51826d805137c5c5d6ebc37" />
<rom name="Thunder Cross OST (Track 06).bin" size="21845376" crc="8ba40279" md5="69b73a8b85a5ea0444a4b1ddcca4b6e6" sha1="2586c41de60c4eb731069750a77ea673f2e0457b" />
<rom name="Thunder Cross OST (Track 07).bin" size="23689344" crc="67b4a97f" md5="70bd446f64094c5a03ff1c6c26743bac" sha1="be697708dc12dcf36ba8c020cbc21c19df5a367a" />
<rom name="Thunder Cross OST (Track 08).bin" size="19834416" crc="46f18eee" md5="6a4195b5650e3f05133176b36fd906d7" sha1="234af9ef63018523a324fdb5eee82e38cb94327d" />
<rom name="Thunder Cross OST (Track 09).bin" size="26530560" crc="e8529b3f" md5="942f7b0eae436b1836b59c90ce4099ce" sha1="030407f55ba5d1ce04b87b21d57d747803b462b1" />
<rom name="Thunder Cross OST (Track 10).bin" size="13735680" crc="533b613c" md5="badbb4403a4045a144a10e69814632ee" sha1="7890810d160601c75b9197e27e61a27fe81a8a66" />
<rom name="Thunder Cross OST (Track 11).bin" size="2721264" crc="5f54af2c" md5="93a612dd2b8c3aa2886f78aa1ee24234" sha1="694101c7add1f0ce9b84573d31b5df311dbe6053" />
<rom name="Thunder Cross OST (Track 12).bin" size="12642000" crc="a7ea75ef" md5="76f66bf12a25c2cd390e98ed7fde4afb" sha1="9ff3747dff17972c3a2a18cc5fe1946ff32f8820" />
<rom name="Thunder Cross OST (Track 13).bin" size="1622880" crc="495503bf" md5="9e4e801d9787954c86d1aa1f33dcb2fd" sha1="4260fa078cf9da1df0a30e74a8956aec9646538c" />
<rom name="Thunder Cross OST (Track 14).bin" size="15012816" crc="eb33788c" md5="9afa61d371508a909aa67c7bed4a729f" sha1="63304af9efc4b0a32869800ec4375bc84357c5c8" />
<rom name="Thunder Cross OST (Track 15).bin" size="29216544" crc="1528cbc7" md5="ae150173065c1acfde6d66bb557cb436" sha1="e9f99d42cc4daeb85823ee0f9ffe219350b8098d" />
<rom name="Thunder Cross OST (Track 16).bin" size="69767376" crc="9c10000f" md5="b1bd4d098f4b7d10f6237ca3a388b461" sha1="3e86eb0e8794aa6c27fc1b391952071d4a58d92d" />
<rom name="Thunder Cross OST (Track 17).bin" size="2027424" crc="11703447" md5="b94dc23e4056dcf59b1b11c7106a251d" sha1="1ba9b26659bf4c48f04dd361e5cac299fc6680bb" />
<rom name="Thunder Cross OST (Track 18).bin" size="27878256" crc="1e849ce3" md5="d5872b9301b35f66502c95e36994ac25" sha1="7ab77b6b5b90bdf73551d1abe68ad3f90130c29c" />
<rom name="Thunder Cross OST (Track 19).bin" size="26295360" crc="492278a1" md5="ee1c4f406a451c367d72d1ee22987716" sha1="1a0a6549ba24540a17b7cc81a9d76833e5b0f0ce" />
<rom name="Thunder Cross OST (Track 20).bin" size="25307520" crc="9aa55948" md5="b47c9a6b671d09d8a1f9a672ff065159" sha1="8ca454c4530acc2cd7462d29379a93ce14dfe5af" />
<rom name="Thunder Cross OST (Track 21).bin" size="31380384" crc="d4b8ffb1" md5="103921bef7d06641294ef5240a1851e4" sha1="583b46a14f42a414eda20cc40d2e58c728134f40" />
<rom name="Thunder Cross OST (Track 22).bin" size="30058560" crc="abeec4b3" md5="98878e4dc77f133e3bde017250317e28" sha1="b3b85a162a33c8e39e1396ec0e418a50e10b8180" />
<rom name="Thunder Cross OST (Track 23).bin" size="2704800" crc="dc487cbf" md5="8e52e81d19600f0ed8545f66a17d50ec" sha1="3ae18e86f02ffe2f0fa7fcf14107b4c45fe18fe9" />
<rom name="Thunder Cross OST (Track 24).bin" size="17388336" crc="76fe09dd" md5="f05c5dd4aa86387191fb871f339369aa" sha1="ddfc808d97b4ecec51945636f04efa6dd04ab4bc" />
<rom name="Thunder Cross OST (Track 25).bin" size="1474704" crc="672d12c0" md5="97dd54719a15b1ec4bbe78bfe98c69c5" sha1="0016fb3ee1567cd15436e4b109a4c438aa82ac30" />
<rom name="Thunder Cross OST (Track 26).bin" size="28395696" crc="e62bdc6d" md5="5e4c2311adc95a4ea4edc1183044b6fa" sha1="2928f91cd8fb48f9f8e8b5324546a58ff90bdcfd" />
<rom name="Thunder Cross OST (Track 27).bin" size="48286560" crc="ecc9fbe5" md5="6b48697766d05c7895c4fc3546896f66" sha1="1b71c8a019f3775737edb8d6edca857169e8920b" />

Cuesheet:

FILE "Thunder Cross OST (Track 01).bin" BINARY
  TRACK 01 AUDIO
    INDEX 01 00:00:00
FILE "Thunder Cross OST (Track 02).bin" BINARY
  TRACK 02 AUDIO
    INDEX 00 00:00:00
    INDEX 01 00:01:15
FILE "Thunder Cross OST (Track 03).bin" BINARY
  TRACK 03 AUDIO
    INDEX 01 00:00:00
FILE "Thunder Cross OST (Track 04).bin" BINARY
  TRACK 04 AUDIO
    INDEX 00 00:00:00
    INDEX 01 00:01:35
FILE "Thunder Cross OST (Track 05).bin" BINARY
  TRACK 05 AUDIO
    INDEX 00 00:00:00
    INDEX 01 00:01:20
FILE "Thunder Cross OST (Track 06).bin" BINARY
  TRACK 06 AUDIO
    INDEX 01 00:00:00
FILE "Thunder Cross OST (Track 07).bin" BINARY
  TRACK 07 AUDIO
    INDEX 00 00:00:00
    INDEX 01 00:01:22
FILE "Thunder Cross OST (Track 08).bin" BINARY
  TRACK 08 AUDIO
    INDEX 00 00:00:00
    INDEX 01 00:00:55
FILE "Thunder Cross OST (Track 09).bin" BINARY
  TRACK 09 AUDIO
    INDEX 00 00:00:00
    INDEX 01 00:00:67
FILE "Thunder Cross OST (Track 10).bin" BINARY
  TRACK 10 AUDIO
    INDEX 00 00:00:00
    INDEX 01 00:01:47
FILE "Thunder Cross OST (Track 11).bin" BINARY
  TRACK 11 AUDIO
    INDEX 01 00:00:00
FILE "Thunder Cross OST (Track 12).bin" BINARY
  TRACK 12 AUDIO
    INDEX 00 00:00:00
    INDEX 01 00:00:58
FILE "Thunder Cross OST (Track 13).bin" BINARY
  TRACK 13 AUDIO
    INDEX 00 00:00:00
    INDEX 01 00:01:18
FILE "Thunder Cross OST (Track 14).bin" BINARY
  TRACK 14 AUDIO
    INDEX 00 00:00:00
    INDEX 01 00:01:73
FILE "Thunder Cross OST (Track 15).bin" BINARY
  TRACK 15 AUDIO
    INDEX 00 00:00:00
    INDEX 01 00:02:30
FILE "Thunder Cross OST (Track 16).bin" BINARY
  TRACK 16 AUDIO
    INDEX 00 00:00:00
    INDEX 01 00:01:60
FILE "Thunder Cross OST (Track 17).bin" BINARY
  TRACK 17 AUDIO
    INDEX 01 00:00:00
FILE "Thunder Cross OST (Track 18).bin" BINARY
  TRACK 18 AUDIO
    INDEX 01 00:00:00
FILE "Thunder Cross OST (Track 19).bin" BINARY
  TRACK 19 AUDIO
    INDEX 01 00:00:00
FILE "Thunder Cross OST (Track 20).bin" BINARY
  TRACK 20 AUDIO
    INDEX 01 00:00:00
FILE "Thunder Cross OST (Track 21).bin" BINARY
  TRACK 21 AUDIO
    INDEX 01 00:00:00
FILE "Thunder Cross OST (Track 22).bin" BINARY
  TRACK 22 AUDIO
    INDEX 01 00:00:00
FILE "Thunder Cross OST (Track 23).bin" BINARY
  TRACK 23 AUDIO
    INDEX 00 00:00:00
    INDEX 01 00:01:38
FILE "Thunder Cross OST (Track 24).bin" BINARY
  TRACK 24 AUDIO
    INDEX 00 00:00:00
    INDEX 01 00:01:20
FILE "Thunder Cross OST (Track 25).bin" BINARY
  TRACK 25 AUDIO
    INDEX 00 00:00:00
    INDEX 01 00:01:32
FILE "Thunder Cross OST (Track 26).bin" BINARY
  TRACK 26 AUDIO
    INDEX 00 00:00:00
    INDEX 01 00:01:53
FILE "Thunder Cross OST (Track 27).bin" BINARY
  TRACK 27 AUDIO
    INDEX 00 00:00:00
    INDEX 01 00:02:02

Write Offset: 0

https://megaupload.nz/9ef8Y8r3n2/Audio_CD_7z