Title: Super Robot Taisen OG Saga Endless Frontier Drama CD
Disc Number / Letter:
Disc Title:
System: Audio CD
Media Type: CD-ROM
Category: Extra
Region: Japan
Languages: Japanese
Disc Serial: AP-CD
Ringcode Information:
    Mastering Code (laser branded/etched): C22480PO
    Mastering SID Code: IFPI L304
    Data-Side Mould SID Code:
    Label-Side Mould SID Code:
    Additional Mould:
    Toolstamp or Mastering Code (engraved/stamped):
Barcode: Has no barcode
Error Count: 0
Comments: Contains drama tracks and songs from the game.
Contents:
Version:
Edition/Release: Not For Sale
Primary Volume Descriptor (PVD):

Disc has no PVD
DAT:

<rom name="Super Robot Taisen OG Saga Endless Frontier Drama CD (Track 01).bin" size="95117232" crc="0a2234a4" md5="370164721ec66ebf7a6ec0c3c056d79f" sha1="ebd15669f96720d14578eacbd99ac1f4fa90c423" />
<rom name="Super Robot Taisen OG Saga Endless Frontier Drama CD (Track 02).bin" size="151967424" crc="8c790c47" md5="e1b7d489ac95cb31c126680f62a05b38" sha1="501b5583feb23524411545e20ac62f0a3eb8a35c" />
<rom name="Super Robot Taisen OG Saga Endless Frontier Drama CD (Track 03).bin" size="163496928" crc="af2abda9" md5="446d355e48b7e810098726771db84c67" sha1="f52b0d945c622f46682d0cc4187e08e302776f87" />
<rom name="Super Robot Taisen OG Saga Endless Frontier Drama CD (Track 04).bin" size="26532912" crc="42bd5676" md5="e699da72f5afab4ef379ee52ee80b7d0" sha1="e9e91334af8a0b1b9bbea80cf3bad07d3c87a147" />
<rom name="Super Robot Taisen OG Saga Endless Frontier Drama CD (Track 05).bin" size="20582352" crc="59ec52cc" md5="3f4fc24a12cf0c899b12778251ec3e3b" sha1="6b7bef49378dc6d29167c750a921b2ffc0cea0bf" />
<rom name="Super Robot Taisen OG Saga Endless Frontier Drama CD (Track 06).bin" size="15323280" crc="351a395f" md5="882c0282403d60670167a53ec82fb57b" sha1="acf1f99475c6641dda668936536c2fee97b65e90" />
<rom name="Super Robot Taisen OG Saga Endless Frontier Drama CD (Track 07).bin" size="15570240" crc="aa16b3cc" md5="75e42f25dea75da521ea40b40906f274" sha1="5c7d577a61651801783f5b43badb52bbbcb4fe29" />
<rom name="Super Robot Taisen OG Saga Endless Frontier Drama CD (Track 08).bin" size="17839920" crc="0bfa5db0" md5="60b97cc765ae5811a09242e68b9fd9bb" sha1="ab427138280bd08d714a383e11bcc1f99cbc6ad2" />
<rom name="Super Robot Taisen OG Saga Endless Frontier Drama CD (Track 09).bin" size="36474816" crc="56ea470a" md5="9233604eeb68caef9d944f7bfb2b2a82" sha1="6c02ea81644d68396e45df88c8a6da35aa6eab89" />
<rom name="Super Robot Taisen OG Saga Endless Frontier Drama CD (Track 10).bin" size="14772912" crc="8c1d8cd8" md5="99d000bd5ce4baaa34447e31859bf9e0" sha1="66a3bf082108eb98252dddbbb471e533230c3198" />
<rom name="Super Robot Taisen OG Saga Endless Frontier Drama CD (Track 11).bin" size="17750544" crc="21c6c275" md5="bd6cc22e1f172fad528353730e695a3e" sha1="5395e4eda3505bd0a6853030e81cbad2a05f869a" />
<rom name="Super Robot Taisen OG Saga Endless Frontier Drama CD (Track 12).bin" size="17099040" crc="e80d0da6" md5="d3e8712b33726b7f806a34716cfd2b74" sha1="5e481ef4995f01ff3e3ffa184994b1c8d557e453" />
<rom name="Super Robot Taisen OG Saga Endless Frontier Drama CD (Track 13).bin" size="18411456" crc="acf6d079" md5="246e19c1ae0348bac7720f80b6189f34" sha1="0c8c29b59922d7403e2d0ad699881b173c8ff367" />

Cuesheet:

FILE "Super Robot Taisen OG Saga Endless Frontier Drama CD (Track 01).bin" BINARY
  TRACK 01 AUDIO
    FLAGS DCP
    INDEX 01 00:00:00
FILE "Super Robot Taisen OG Saga Endless Frontier Drama CD (Track 02).bin" BINARY
  TRACK 02 AUDIO
    FLAGS DCP
    INDEX 01 00:00:00
FILE "Super Robot Taisen OG Saga Endless Frontier Drama CD (Track 03).bin" BINARY
  TRACK 03 AUDIO
    FLAGS DCP
    INDEX 01 00:00:00
FILE "Super Robot Taisen OG Saga Endless Frontier Drama CD (Track 04).bin" BINARY
  TRACK 04 AUDIO
    FLAGS DCP
    INDEX 01 00:00:00
FILE "Super Robot Taisen OG Saga Endless Frontier Drama CD (Track 05).bin" BINARY
  TRACK 05 AUDIO
    FLAGS DCP
    INDEX 01 00:00:00
FILE "Super Robot Taisen OG Saga Endless Frontier Drama CD (Track 06).bin" BINARY
  TRACK 06 AUDIO
    FLAGS DCP
    INDEX 01 00:00:00
FILE "Super Robot Taisen OG Saga Endless Frontier Drama CD (Track 07).bin" BINARY
  TRACK 07 AUDIO
    FLAGS DCP
    INDEX 01 00:00:00
FILE "Super Robot Taisen OG Saga Endless Frontier Drama CD (Track 08).bin" BINARY
  TRACK 08 AUDIO
    FLAGS DCP
    INDEX 01 00:00:00
FILE "Super Robot Taisen OG Saga Endless Frontier Drama CD (Track 09).bin" BINARY
  TRACK 09 AUDIO
    FLAGS DCP
    INDEX 01 00:00:00
FILE "Super Robot Taisen OG Saga Endless Frontier Drama CD (Track 10).bin" BINARY
  TRACK 10 AUDIO
    FLAGS DCP
    INDEX 01 00:00:00
FILE "Super Robot Taisen OG Saga Endless Frontier Drama CD (Track 11).bin" BINARY
  TRACK 11 AUDIO
    FLAGS DCP
    INDEX 01 00:00:00
FILE "Super Robot Taisen OG Saga Endless Frontier Drama CD (Track 12).bin" BINARY
  TRACK 12 AUDIO
    FLAGS DCP
    INDEX 01 00:00:00
FILE "Super Robot Taisen OG Saga Endless Frontier Drama CD (Track 13).bin" BINARY
  TRACK 13 AUDIO
    FLAGS DCP
    INDEX 01 00:00:00

Write Offset: 0