Title: Scissors N Stones
Disc Number / Letter: 1
Disc Title: SNS_PC
System: IBM PC Compatible
Media Type: CD-ROM
Category: Games
Region: USA
Languages: English
Disc Serial: N/A
Ringcode Information:
    Mastering Code (laser branded/etched): DISC MFG., INC.[TAB](A6)[TAB]W.O. # 44425-2[TAB]44425
    Mastering SID Code: N/A
    Data-Side Mould SID Code: N/A
    Label-Side Mould SID Code: N/A
    Additional Mould: N/A
    Toolstamp or Mastering Code (engraved/stamped): N/A
Barcode: 7 56519 90010 1
ISBN: N/A
Error Count: 0
Comments: N/A
Contents: N/A
Version: N/A
Edition/Release: Original
Primary Volume Descriptor (PVD):

0320 : 20 20 20 20 20 20 20 20  20 20 20 20 20 31 39 39                199
0330 : 34 30 31 30 34 32 31 31  34 31 37 30 30 00 31 39   4010421141700.19
0340 : 39 34 30 31 30 34 32 31  31 34 31 37 30 30 00 30   94010421141700.0
0350 : 30 30 30 30 30 30 30 30  30 30 30 30 30 30 30 00   000000000000000.
0360 : 30 30 30 30 30 30 30 30  30 30 30 30 30 30 30 30   0000000000000000
0370 : 00 01 00 00 00 00 00 00  00 00 00 00 00 00 00 00   ................

Copy Protection: None found

DAT:

<rom name="SNS_PC (Track 1).bin" size="490140336" crc="df94e877" md5="7c6ea3eff6b20832776f298513a5fc1a" sha1="848371fe26de68945fa498617f61f43737e499f8" />
<rom name="SNS_PC (Track 2).bin" size="7521696" crc="38b6f816" md5="33e2b6580deea8d7eeb27f7d500bea90" sha1="ab999eb2a46f70d016fd0be1e6f2669b14f08b06" />
<rom name="SNS_PC (Track 3).bin" size="16797984" crc="eeb6ac46" md5="0314b125a61bc045442551126d67a9a3" sha1="9e8d762087822d6fc17706d648867d16951ffd60" />
<rom name="SNS_PC (Track 4).bin" size="13531056" crc="db8478a0" md5="4908c00c06cc1a130a219547e191edfb" sha1="feb25d4b06177de2fff5777059803bb839e9461f" />
<rom name="SNS_PC (Track 5).bin" size="13940304" crc="907291ef" md5="ff29a45ad4773b1f680d123279d96be4" sha1="48fc9025ea899b3fadb77cc3089d01a22aa23310" />
<rom name="SNS_PC (Track 6).bin" size="15706656" crc="b912b322" md5="22e5a170782fbe153932c231b6ff1bf8" sha1="3c70ff8986b8e72d2baa7c0a176b99d15a91bd38" />
<rom name="SNS_PC (Track 7).bin" size="17197824" crc="820fafa7" md5="706964cf680bd66c5d8a38f18b9a3ac9" sha1="2dd791fd3e3c9cf51be8544eb9e5abab4ed0784d" />
<rom name="SNS_PC (Track 8).bin" size="20540016" crc="bd0b6b83" md5="0198b104ad94fdbdd2fdb7436922ce75" sha1="c8610e0e448b5f3b1a2209f4ba539bc25a63db75" />
<rom name="SNS_PC (Track 9).bin" size="11964624" crc="825931fe" md5="f9a89f40c79ad62b98fa4e322a4fc3fa" sha1="2b07d79e053f5f18fce7e7cdfcc51ad0a7f8c81b" />

Cuesheet:

CATALOG 0000000000000
FILE "SNS_PC (Track 1).bin" BINARY
  TRACK 01 MODE1/2352
    INDEX 01 00:00:00
FILE "SNS_PC (Track 2).bin" BINARY
  TRACK 02 AUDIO
    INDEX 00 00:00:00
    INDEX 01 00:02:00
FILE "SNS_PC (Track 3).bin" BINARY
  TRACK 03 AUDIO
    INDEX 01 00:00:00
FILE "SNS_PC (Track 4).bin" BINARY
  TRACK 04 AUDIO
    INDEX 01 00:00:00
FILE "SNS_PC (Track 5).bin" BINARY
  TRACK 05 AUDIO
    INDEX 01 00:00:00
FILE "SNS_PC (Track 6).bin" BINARY
  TRACK 06 AUDIO
    INDEX 01 00:00:00
FILE "SNS_PC (Track 7).bin" BINARY
  TRACK 07 AUDIO
    INDEX 01 00:00:00
FILE "SNS_PC (Track 8).bin" BINARY
  TRACK 08 AUDIO
    INDEX 01 00:00:00
FILE "SNS_PC (Track 9).bin" BINARY
  TRACK 09 AUDIO
    INDEX 01 00:00:00

Write Offset: 0

Logs: https://drive.google.com/open?id=1S3lCH … rkaeLbafFt