DICUI 1.12.2 + DIC (20190326 220739)
http://redump.org/disc/8570/
all hashes match
dic/subdump logs

Title: DecAthlete
Disc Number / Letter: -
Disc Title: -
System: Sega Saturn
Media Type: CD-ROM
Category: Games
Region: Japan
Languages: 
Disc Serial: GS-9096 (Sega ID: 670-8780)
Build Date: 1996-06-07
Ringcode Information:
    Mastering Code (laser branded/etched): GS-9096P-00915[TAB]1M2[TAB]C[TAB]66
    Mastering SID Code: IFPI L223
    Data-Side Mould SID Code: IFPI 3905
    Label-Side Mould SID Code: -
    Additional Mould: -
    Toolstamp or Mastering Code (engraved/stamped): -
Barcode: 
Error Count: 0
Comments: -
Contents: -
Version: V1.001
Edition/Release: Original
Header:

0000 : 53 45 47 41 20 53 45 47  41 53 41 54 55 52 4E 20   SEGA SEGASATURN 
0010 : 53 45 47 41 20 45 4E 54  45 52 50 52 49 53 45 53   SEGA ENTERPRISES
0020 : 47 53 2D 39 30 39 36 20  20 20 56 31 2E 30 30 31   GS-9096   V1.001
0030 : 31 39 39 36 30 36 30 37  43 44 2D 31 2F 31 20 20   19960607CD-1/1  
0040 : 4A 54 20 20 20 20 20 20  20 20 20 20 20 20 20 20   JT              
0050 : 4A 20 20 20 20 20 20 20  20 20 20 20 20 20 20 20   J               
0060 : 44 45 43 41 54 48 4C 45  54 45 20 20 20 20 20 20   DECATHLETE      
0070 : 20 20 20 20 20 20 20 20  20 20 20 20 20 20 20 20                   
0080 : 20 20 20 20 20 20 20 20  20 20 20 20 20 20 20 20                   
0090 : 20 20 20 20 20 20 20 20  20 20 20 20 20 20 20 20                   
00A0 : 20 20 20 20 20 20 20 20  20 20 20 20 20 20 20 20                   
00B0 : 20 20 20 20 20 20 20 20  20 20 20 20 20 20 20 20                   
00C0 : 20 20 20 20 20 20 20 20  20 20 20 20 20 20 20 20                   
00D0 : 00 00 00 00 00 00 00 00  00 00 00 00 00 00 00 00   ................
00E0 : 00 00 18 00 00 00 00 00  00 00 00 00 00 00 00 00   ................
00F0 : 06 00 40 00 00 00 00 00  00 00 00 00 00 00 00 00   ..@.............

Primary Volume Descriptor (PVD):

0320 : 20 20 20 20 20 20 20 20  20 20 20 20 20 31 39 39                199
0330 : 36 30 36 30 37 31 37 32  38 34 36 30 30 14 31 39   6060717284600.19
0340 : 39 36 30 36 30 37 31 37  32 38 34 36 30 30 14 30   96060717284600.0
0350 : 30 30 30 30 30 30 30 30  30 30 30 30 30 30 30 00   000000000000000.
0360 : 30 30 30 30 30 30 30 30  30 30 30 30 30 30 30 30   0000000000000000
0370 : 00 01 00 00 00 00 00 00  00 00 00 00 00 00 00 00   ................

DAT:

<rom name="DECATHLETE (Track 01).bin" size="33628896" crc="422cfec1" md5="07b25ac43b9584c4d63a35b9fa9c4770" sha1="36be9c20a017d1415b3d0ebeeda71cd95a8412cb" />
<rom name="DECATHLETE (Track 02).bin" size="10097136" crc="42012b4c" md5="c00534d5f49063e359b6cc48901007d2" sha1="fefd8e9f4e0c8a89583420afc841a7a5786e1ce0" />
<rom name="DECATHLETE (Track 03).bin" size="46061568" crc="616b7d6c" md5="65d928359c212e5e7d40acdf676fa73d" sha1="cf9b8dd4100692b7f5ffd38b4b6c20a0752b2eec" />
<rom name="DECATHLETE (Track 04).bin" size="1648752" crc="fe71dd46" md5="52038a5b91e01201389c1c0224b6053b" sha1="fb93d395b6b2d6148427abf1a950771159a77b50" />
<rom name="DECATHLETE (Track 05).bin" size="1862784" crc="0cb13e14" md5="845695fc323cbc47c2080e7cee272ff9" sha1="adc389db79350a9300d000c1643b7847c8d19385" />
<rom name="DECATHLETE (Track 06).bin" size="2116800" crc="45266ff3" md5="47373acbf09a755de27c1df401e26a62" sha1="04431c04d652e37c44cdd0f44058d01fe8d92f62" />
<rom name="DECATHLETE (Track 07).bin" size="15191568" crc="b56e441e" md5="7b31067085853bbc153d0a419227fc84" sha1="6a4906fb22f216f86646cbe653b797ffa74bdd21" />
<rom name="DECATHLETE (Track 08).bin" size="1058400" crc="4ff81f63" md5="84ab7ab0a84ab5453e77470b60b05c1f" sha1="3ce75ff56fb2ada75c2b0f919e22910af02fa859" />
<rom name="DECATHLETE (Track 09).bin" size="1150128" crc="f4514a09" md5="374ec6412b552a1c411c1d3a49797c55" sha1="ddb6e5d36e8f4cc903695fe75b099b47600d5c88" />
<rom name="DECATHLETE (Track 10).bin" size="1058400" crc="7eee9d08" md5="7ca33004f31f8e08545b366b248a3443" sha1="5f4fe4369771b5a5a322cf2038dba102f84c0046" />
<rom name="DECATHLETE (Track 11).bin" size="29193024" crc="b3d21e42" md5="17e0a32b7e972005218f8c5d20a15f1e" sha1="6aa72a048e6a15400fb2cf4358f9f7bf432872f8" />

Cuesheet:

CATALOG 0000000000000
FILE "DECATHLETE (Track 01).bin" BINARY
  TRACK 01 MODE1/2352
    INDEX 01 00:00:00
FILE "DECATHLETE (Track 02).bin" BINARY
  TRACK 02 AUDIO
    INDEX 00 00:00:00
    INDEX 01 00:02:00
FILE "DECATHLETE (Track 03).bin" BINARY
  TRACK 03 AUDIO
    INDEX 00 00:00:00
    INDEX 01 00:02:00
FILE "DECATHLETE (Track 04).bin" BINARY
  TRACK 04 AUDIO
    INDEX 00 00:00:00
    INDEX 01 00:02:00
FILE "DECATHLETE (Track 05).bin" BINARY
  TRACK 05 AUDIO
    INDEX 00 00:00:00
    INDEX 01 00:02:00
FILE "DECATHLETE (Track 06).bin" BINARY
  TRACK 06 AUDIO
    INDEX 00 00:00:00
    INDEX 01 00:02:00
FILE "DECATHLETE (Track 07).bin" BINARY
  TRACK 07 AUDIO
    INDEX 00 00:00:00
    INDEX 01 00:02:00
FILE "DECATHLETE (Track 08).bin" BINARY
  TRACK 08 AUDIO
    INDEX 00 00:00:00
    INDEX 01 00:02:00
FILE "DECATHLETE (Track 09).bin" BINARY
  TRACK 09 AUDIO
    INDEX 00 00:00:00
    INDEX 01 00:02:00
FILE "DECATHLETE (Track 10).bin" BINARY
  TRACK 10 AUDIO
    INDEX 00 00:00:00
    INDEX 01 00:02:00
FILE "DECATHLETE (Track 11).bin" BINARY
  TRACK 11 AUDIO
    INDEX 00 00:00:00
    INDEX 01 00:02:00

Write Offset: 0