Already in DB: http://redump.org/disc/26381/

Title: Frogger 2: Swampy's Revenge
Disc Number / Letter: (OPTIONAL)
Disc Title: (OPTIONAL)
System: IBM PC Compatible
Media Type: CD-ROM
Category: Games
Region: USA
Languages: English
Disc Serial: Product # 99220
Ringcode Information:
    Mastering Code (laser branded/etched): 99220   + +   A2022-01
    Mastering SID Code: IFPI L028
    Mould SID Code: IFPI 1014
Barcode: (OPTIONAL)
ISBN: (OPTIONAL)
Error Count: 0
Comments: (OPTIONAL)
Contents: Demos: Breakout
Version: 1.0
Edition/Release: Original
Primary Volume Descriptor (PVD):

0320 : 20 20 20 20 20 20 20 20  20 20 20 20 20 32 30 30                200
0330 : 30 30 39 30 36 32 30 32  35 35 35 32 38 04 32 30   0090620255528.20
0340 : 30 30 30 39 30 36 32 30  32 37 31 32 34 35 00 00   00090620271245..
0350 : 00 00 00 00 00 00 00 00  00 00 00 00 00 00 00 00   ................
0360 : 00 00 00 00 00 00 00 00  00 00 00 00 00 00 00 00   ................
0370 : 00 01 00 00 00 00 00 00  00 00 00 00 00 00 00 00   ................

Copy Protection: None found

DAT:

<rom name="FROGGER2 (Track 01).bin" size="218823024" crc="020e7c84" md5="ad58028106e4f7f7cfcb775a42ed215c" sha1="6cbaea5810a99483a123a7e6d10e9f3a3ebbebfd" />
<rom name="FROGGER2 (Track 02).bin" size="29997408" crc="aea61a34" md5="fed473b76b618d90e5e9e13f8ab22d66" sha1="84294d22b365507444a201ed203d0d57a92b0a57" />
<rom name="FROGGER2 (Track 03).bin" size="35327040" crc="34e01ed2" md5="556226b0330084a2bacca07bb14a4480" sha1="0f469fb25b3ade4e0bb4fbd0c0988973359a0e78" />
<rom name="FROGGER2 (Track 04).bin" size="35195328" crc="d0e60493" md5="f01553d88ecc24f80120cc801c9b2fc4" sha1="846863a5e7a036df5586d1422dfddef68421046c" />
<rom name="FROGGER2 (Track 05).bin" size="32387040" crc="276c937e" md5="708280e129c0684a7b20de4f787c2444" sha1="f92749146a4cdea35dd880f6368fcd585f57f7de" />
<rom name="FROGGER2 (Track 06).bin" size="34847232" crc="d6a70930" md5="53b412edf47d06c86711fbcbb425044d" sha1="b57530cfd7030398a319757ad2e6e0ab240d4db2" />
<rom name="FROGGER2 (Track 07).bin" size="32697504" crc="057c3f08" md5="6112b81530fa632df065de7273d7f9f3" sha1="e1f298222d8fa09b2d72e6aadb27bab30bd63bfe" />
<rom name="FROGGER2 (Track 08).bin" size="31483872" crc="c1deffcf" md5="3a4061a90eb1ecdd5c5cb3d6eea865f7" sha1="6b1dd346020b386c8721618c94664ea4f741892c" />
<rom name="FROGGER2 (Track 09).bin" size="32372928" crc="8c5b539e" md5="190d22d9a09e665dbbfe1403439937f7" sha1="16a2d7d6e8238d87c056cd959128d5d8509a8a96" />
<rom name="FROGGER2 (Track 10).bin" size="2344944" crc="051ff272" md5="42af8f0a02b7b896a591dc2b76ce1020" sha1="3ff74e0578e54387dcbd6b15f48d854a91209041" />
<rom name="FROGGER2 (Track 11).bin" size="1853376" crc="68fd2e91" md5="7440ce4dddf76d301e527476fee840c2" sha1="396d606797fbcf16cb11414fb8722a2a988b6535" />
<rom name="FROGGER2 (Track 12).bin" size="3184608" crc="f8d7f130" md5="545c38ab475f9389bb95c26470b835e9" sha1="01ff7bf992ab69fc3a53a0bf547d75ceb31e7526" />

Cuesheet:

FILE "FROGGER2 (Track 01).bin" BINARY
  TRACK 01 MODE1/2352
    INDEX 01 00:00:00
FILE "FROGGER2 (Track 02).bin" BINARY
  TRACK 02 AUDIO
    INDEX 00 00:00:00
    INDEX 01 00:01:74
FILE "FROGGER2 (Track 03).bin" BINARY
  TRACK 03 AUDIO
    INDEX 00 00:00:00
    INDEX 01 00:01:74
FILE "FROGGER2 (Track 04).bin" BINARY
  TRACK 04 AUDIO
    INDEX 00 00:00:00
    INDEX 01 00:01:74
FILE "FROGGER2 (Track 05).bin" BINARY
  TRACK 05 AUDIO
    INDEX 00 00:00:00
    INDEX 01 00:01:74
FILE "FROGGER2 (Track 06).bin" BINARY
  TRACK 06 AUDIO
    INDEX 00 00:00:00
    INDEX 01 00:01:74
FILE "FROGGER2 (Track 07).bin" BINARY
  TRACK 07 AUDIO
    INDEX 00 00:00:00
    INDEX 01 00:01:74
FILE "FROGGER2 (Track 08).bin" BINARY
  TRACK 08 AUDIO
    INDEX 01 00:00:00
FILE "FROGGER2 (Track 09).bin" BINARY
  TRACK 09 AUDIO
    INDEX 00 00:00:00
    INDEX 01 00:01:74
FILE "FROGGER2 (Track 10).bin" BINARY
  TRACK 10 AUDIO
    INDEX 00 00:00:00
    INDEX 01 00:01:74
FILE "FROGGER2 (Track 11).bin" BINARY
  TRACK 11 AUDIO
    INDEX 00 00:00:00
    INDEX 01 00:01:74
FILE "FROGGER2 (Track 12).bin" BINARY
  TRACK 12 AUDIO
    INDEX 00 00:00:00
    INDEX 01 00:01:74

Write Offset: -12

http://www.mediafire.com/file/n3og5e33m … R2.7z/file