Pics/Files: https://drive.google.com/open?id=17T8cp … lhTsQcFofO

Title: Whiplash 3D + VR Soccer '96 3D
Disc Number / Letter:
Disc Title:
System: IBM PC Compatible
Media Type: CD-ROM
Category: Games
Region: USA
Languages: Eng
Disc Serial: ICD-358-DIA
Ringcode Information:
    Mastering Code (laser branded/etched): 1518  1  <DISCPAK - 1003> WHIPLASH  3D  +  +
    Mastering SID Code:
    Label-Side Mould SID Code:
    Data-Side Mould SID Code:
    Additional Mould:
    Toolstamp or Mastering Code (engraved/stamped):
Barcode:
ISBN:
Error Count: 0
Comments:
Contents:
Version: Whiplash 3D 1.22 / VR Soccer '96 3D 1.29
Edition/Release: Bundled Version - Diamond Monster 3D
Primary Volume Descriptor (PVD):

0320 : 20 20 20 20 20 20 20 20  20 20 20 20 20 31 39 39                199
0330 : 36 31 30 31 38 31 38 33  32 32 33 30 30 00 31 39   6101818322300.19
0340 : 39 36 31 30 31 38 31 38  33 32 32 33 30 30 00 32   96101818322300.2
0350 : 30 30 36 31 30 31 36 31  38 33 32 32 33 30 30 00   006101618322300.
0360 : 31 39 39 36 31 30 31 38  31 38 33 32 32 33 30 30   1996101818322300
0370 : 00 01 00 00 00 00 00 00  00 00 00 00 00 00 00 00   ................

Copy Protection: None found

DAT:

<rom name="VRSOCCER (Track 1).bin" size="228934272" crc="52ea1a60" md5="9614e29421cc9ffa45f715ae88986e09" sha1="a093595a015bef051a83a50271f36d5eff2de61a" />
<rom name="VRSOCCER (Track 2).bin" size="36646512" crc="2b7dde43" md5="c04d8601dcc82fbd0aa427e7e190484c" sha1="f0c5392c25bb00cde5fe5b46930317c5584ba934" />
<rom name="VRSOCCER (Track 3).bin" size="50772624" crc="bce88d83" md5="a1e540bbf3c0f2864e47baadec403d88" sha1="2d2da62cb22c8e888b230c4af1ccdeae18b61c18" />
<rom name="VRSOCCER (Track 4).bin" size="54063072" crc="3a4c1a7e" md5="4473743890e2196e655c988f803fe526" sha1="1be65722fc86d7581a9bb404ab8b32f53958a615" />
<rom name="VRSOCCER (Track 5).bin" size="50953728" crc="165df20b" md5="dfe516ea13c539c250d4c54db85e83c7" sha1="2491b03d8b74fbbbc3a7b215e3c90305734be90b" />
<rom name="VRSOCCER (Track 6).bin" size="49053312" crc="07fb06b2" md5="70a2a1c37d94c1606a88280456ce22d2" sha1="dc1cc3542d94c27a3e52d2ea429354ada5971486" />
<rom name="VRSOCCER (Track 7).bin" size="54241824" crc="d33aba45" md5="1f1ee35bd0e3d3a6ccde4a6cc93b7b7f" sha1="078202dc4aca497773a6d66d517cfa129dc1bc93" />
<rom name="VRSOCCER (Track 8).bin" size="51205392" crc="b8c076ef" md5="9e186991ae230a2ab561e231f1d81ebc" sha1="0ce5f9800b83a8d1dc055f51193ba69bb254b06c" />
<rom name="VRSOCCER (Track 9).bin" size="50949024" crc="320ddd89" md5="f1c3b860cd55abc2e19e0f270238a6f7" sha1="12015f98abfef710de3a783da20eef7648cf0f9d" />

Cuesheet:

FILE "VRSOCCER (Track 1).bin" BINARY
  TRACK 01 MODE1/2352
    INDEX 01 00:00:00
FILE "VRSOCCER (Track 2).bin" BINARY
  TRACK 02 AUDIO
    INDEX 00 00:00:00
    INDEX 01 00:02:02
FILE "VRSOCCER (Track 3).bin" BINARY
  TRACK 03 AUDIO
    INDEX 01 00:00:00
FILE "VRSOCCER (Track 4).bin" BINARY
  TRACK 04 AUDIO
    INDEX 01 00:00:00
FILE "VRSOCCER (Track 5).bin" BINARY
  TRACK 05 AUDIO
    INDEX 01 00:00:00
FILE "VRSOCCER (Track 6).bin" BINARY
  TRACK 06 AUDIO
    INDEX 01 00:00:00
FILE "VRSOCCER (Track 7).bin" BINARY
  TRACK 07 AUDIO
    INDEX 01 00:00:00
FILE "VRSOCCER (Track 8).bin" BINARY
  TRACK 08 AUDIO
    INDEX 01 00:00:00
FILE "VRSOCCER (Track 9).bin" BINARY
  TRACK 09 AUDIO
    INDEX 01 00:00:00

Write Offset: 0