Title: Cho Aniki - My Wife the Rice Dealer
Disc Number / Letter: (OPTIONAL)
Disc Title: (OPTIONAL)
System: Audio CD
Media Type: CD-ROM
Category: Games
Region: Japan
Languages: Japanese
Disc Serial: SHVC-AANJ-JPN
Ringcode Information:
    Mastering Code (laser branded/etched): OP-6672<tab>MIT-030<tab>2A1
    Mastering SID Code: IFPI L222
    Data-Side Mould SID Code: (REQUIRED, IF EXISTS)
    Label-Side Mould SID Code: (REQUIRED, IF EXISTS)
    Additional Mould: (REQUIRED, IF EXISTS)
    Toolstamp or Mastering Code (engraved/stamped): (REQUIRED, IF EXISTS)
Barcode: (OPTIONAL)
Error Count: Error retrieving error count
Comments: Published by Masaya
Contents: https://vgmdb.net/album/11720
Version: (REQUIRED, IF EXISTS)
Edition/Release: Bundled within the japanese edition of the game on SFC
Primary Volume Descriptor (PVD):

Disc has no PVD
DAT:

<rom name="Audio CD (Track 1).bin" size="37142784" crc="8848a760" md5="a842d84c69287509aed5045ccd5ed7b8" sha1="9e394582da72d37341b5b8569d4773da40d8cc35" />
<rom name="Audio CD (Track 2).bin" size="26142480" crc="7fc99c1d" md5="028b016c3951940f33c2badd5c928bd5" sha1="1e5c12215d7ea1b2a933141465b0d8def5f48ebb" />
<rom name="Audio CD (Track 3).bin" size="23261280" crc="a708e0e5" md5="ca07261f5db4361de6f94fa568e1728d" sha1="8bf81808a8f84a4d397cb382b2e403510341edd9" />
<rom name="Audio CD (Track 4).bin" size="38144736" crc="01137fb0" md5="cad64954ab4dcae19cc4f167baebeaae" sha1="3f905faa08b0551858125928575563688af50606" />

Cuesheet:

FILE "Audio CD (Track 1).bin" BINARY
  TRACK 01 AUDIO
    INDEX 01 00:00:00
FILE "Audio CD (Track 2).bin" BINARY
  TRACK 02 AUDIO
    INDEX 00 00:00:00
    INDEX 01 00:02:50
FILE "Audio CD (Track 3).bin" BINARY
  TRACK 03 AUDIO
    INDEX 00 00:00:00
    INDEX 01 00:02:50
FILE "Audio CD (Track 4).bin" BINARY
  TRACK 04 AUDIO
    INDEX 00 00:00:00
    INDEX 01 00:02:50

Write Offset: 0

NOTE:
https://vgmdb.net/album/11720

https://www.dropbox.com/s/84v1ggo4i536m … CD.7z?dl=0