Title: Rei Cho Aniki Original Soundtrack
Disc Number / Letter: (OPTIONAL)
Disc Title: (OPTIONAL)
System: Audio CD
Media Type: CD-ROM
Category: Games
Region: Japan
Languages: Japanese
Disc Serial: GWS0003
Ringcode Information:
    Mastering Code (laser branded/etched): <GWS0003>JT221A
    Mastering SID Code: IFPI L464
    Data-Side Mould SID Code: IFPI 7836
    Label-Side Mould SID Code: (REQUIRED, IF EXISTS)
    Additional Mould: (REQUIRED, IF EXISTS)
    Toolstamp or Mastering Code (engraved/stamped): (REQUIRED, IF EXISTS)
Barcode: (OPTIONAL)
Error Count: Error retrieving error count
Comments: Published by GungHo Works, composed by Koji Hayama
Contents: https://vgmdb.net/album/11779
Version: (REQUIRED, IF EXISTS)
Edition/Release: Bundled within the japanese Special Edition of the game on PSP
Primary Volume Descriptor (PVD):

Disc has no PVD
DAT:

<rom name="Audio CD (Track 1).bin" size="8892912" crc="dca111ce" md5="e15b8bd0228e61424272a1da0a543408" sha1="afdd3f0259ebbb330efaa503ff2737902dfbd93d" />
<rom name="Audio CD (Track 2).bin" size="12787824" crc="c34d2adc" md5="894fada60030b8840f269f74e9dacbae" sha1="4b4b1c46961ef0acc982bc8c8706ad3e8ec4d48e" />
<rom name="Audio CD (Track 3).bin" size="13836816" crc="a1784551" md5="2c4fbef57f1fd583e08f7441121fbfcd" sha1="b0ea72e2b0ff70b572ba7cc135ae27ba41d4f4e8" />
<rom name="Audio CD (Track 4).bin" size="7253568" crc="4e94dc8d" md5="048f9fef75d28cfab3b2c1bb4fe873cf" sha1="288da0df78f4eea34c1b669c0e01ffe5acd7b7c0" />
<rom name="Audio CD (Track 5).bin" size="6966624" crc="7464b7d1" md5="28a2c56ea5f61cd0b4301367fbd284b5" sha1="8b8a1859bf3912fa2c8eb46ac78ee146e16fff1e" />

Cuesheet:

FILE "Audio CD (Track 1).bin" BINARY
  TRACK 01 AUDIO
    INDEX 01 00:00:00
FILE "Audio CD (Track 2).bin" BINARY
  TRACK 02 AUDIO
    INDEX 00 00:00:00
    INDEX 01 00:02:00
FILE "Audio CD (Track 3).bin" BINARY
  TRACK 03 AUDIO
    INDEX 00 00:00:00
    INDEX 01 00:02:00
FILE "Audio CD (Track 4).bin" BINARY
  TRACK 04 AUDIO
    INDEX 00 00:00:00
    INDEX 01 00:02:00
FILE "Audio CD (Track 5).bin" BINARY
  TRACK 05 AUDIO
    INDEX 00 00:00:00
    INDEX 01 00:02:00

Write Offset: 0

NOTE:
https://vgmdb.net/album/11779

https://www.dropbox.com/s/dqemt2ylfkprz … CD.7z?dl=0