Disc 1 Verified: http://redump.org/disc/1998/
Disc 3 Verified: http://redump.org/disc/2046/
Disc 4 Verified: http://redump.org/disc/2045/

Files/Pictures: https://drive.google.com/open?id=1HjfhW … YLvXg2TWLt

Title: Under a Killing Moon
Disc Number / Letter: 1
Disc Title: Disk 1
System: IBM PC Compatible
Media Type: CD-ROM
Category: Games
Region: USA
Languages: Eng
Disc Serial:
Ringcode Information:
    Mastering Code (laser branded/etched): 600936-1     ***RH007335*     MANUFACTURED BY KAO OPTICAL PRODUCTS
    Mastering SID Code:
    Label-Side Mould SID Code:
    Data-Side Mould SID Code:
    Additional Mould:
    Toolstamp or Mastering Code (engraved/stamped):
Barcode: 081192712049
ISBN:
Error Count: 0
Comments:
Contents:
Version:
Edition/Release: Original
Primary Volume Descriptor (PVD):

0320 : 20 20 20 20 20 20 20 20  20 20 20 20 20 31 39 39                199
0330 : 34 31 30 31 32 31 39 31  31 30 31 30 30 E4 31 39   4101219110100.19
0340 : 39 34 31 30 31 32 31 39  31 31 30 31 30 30 E4 30   94101219110100.0
0350 : 30 30 30 30 30 30 30 30  30 30 30 30 30 30 30 00   000000000000000.
0360 : 30 30 30 30 30 30 30 30  30 30 30 30 30 30 30 30   0000000000000000
0370 : 00 01 00 00 00 00 00 00  00 00 00 00 00 00 00 00   ................

Copy Protection: None found

DAT:

<rom name="DISK1.bin" size="508763472" crc="ccdebfc2" md5="815676b5cae5fa9935c3389c2c247f2c" sha1="c14477a5e39451da5a1f428f4c1d83d96807405d" />

Cuesheet:

CATALOG 0000000000000
FILE "DISK1.bin" BINARY
  TRACK 01 MODE1/2352
    INDEX 01 00:00:00

Write Offset: 222

-------------------------------------------------------------------------------------------------------

Title: Under a Killing Moon
Disc Number / Letter: 3
Disc Title: Disk 3
System: IBM PC Compatible
Media Type: CD-ROM
Category: Games
Region: USA
Languages: Eng
Disc Serial:
Ringcode Information:
    Mastering Code (laser branded/etched): W.O. 600895-1     ***RH007337*     MANUFACTURED BY KAO OPTICAL PRODUCTS
    Mastering SID Code:
    Label-Side Mould SID Code:
    Data-Side Mould SID Code:
    Additional Mould:
    Toolstamp or Mastering Code (engraved/stamped):
Barcode: 081192712049
ISBN:
Error Count: 0
Comments:
Contents:
Version:
Edition/Release: Original
Primary Volume Descriptor (PVD):

0320 : 20 20 20 20 20 20 20 20  20 20 20 20 20 31 39 39                199
0330 : 34 31 30 30 37 30 39 33  36 32 37 30 30 E4 31 39   4100709362700.19
0340 : 39 34 31 30 30 37 30 39  33 36 32 37 30 30 E4 30   94100709362700.0
0350 : 30 30 30 30 30 30 30 30  30 30 30 30 30 30 30 00   000000000000000.
0360 : 30 30 30 30 30 30 30 30  30 30 30 30 30 30 30 30   0000000000000000
0370 : 00 01 00 00 00 00 00 00  00 00 00 00 00 00 00 00   ................

Copy Protection: None found

DAT:

<rom name="DISK3.bin" size="745290000" crc="9675d137" md5="d1f04413df9e6a9df86954dd23e219de" sha1="9633c46c8b96937b161f10dff59636d85e6266de" />

Cuesheet:

CATALOG 0000000000000
FILE "DISK3.bin" BINARY
  TRACK 01 MODE1/2352
    INDEX 01 00:00:00

Write Offset: 222

------------------------------------------------------------------------------------

Title: Under a Killing Moon
Disc Number / Letter: 4
Disc Title: Disk 4
System: IBM PC Compatible
Media Type: CD-ROM
Category: Games
Region: USA
Languages: Eng
Disc Serial:
Ringcode Information:
    Mastering Code (laser branded/etched): W.O.600896-3     ***RH007338*     MANUFACTURED BY KAO OPTICAL PRODUCTS
    Mastering SID Code:
    Label-Side Mould SID Code:
    Data-Side Mould SID Code:
    Additional Mould:
    Toolstamp or Mastering Code (engraved/stamped):
Barcode: 081192712049
ISBN:
Error Count: 0
Comments:
Contents:
Version:
Edition/Release: Original
Primary Volume Descriptor (PVD):

0320 : 20 20 20 20 20 20 20 20  20 20 20 20 20 31 39 39                199
0330 : 34 31 30 30 38 31 38 32  37 30 35 30 30 E4 31 39   4100818270500.19
0340 : 39 34 31 30 30 38 31 38  32 37 30 35 30 30 E4 30   94100818270500.0
0350 : 30 30 30 30 30 30 30 30  30 30 30 30 30 30 30 00   000000000000000.
0360 : 30 30 30 30 30 30 30 30  30 30 30 30 30 30 30 30   0000000000000000
0370 : 00 01 00 00 00 00 00 00  00 00 00 00 00 00 00 00   ................

Copy Protection: None found

DAT:

<rom name="DISK4.bin" size="732429264" crc="8a36b221" md5="3f356d5640a0363c966622294019679d" sha1="2b6dceacc13c666eda828c73a6eba4f3f885f392" />

Cuesheet:

CATALOG 0000000000000
FILE "DISK4.bin" BINARY
  TRACK 01 MODE1/2352
    INDEX 01 00:00:00

Write Offset: 222