1 (edited by KailoKyra 2019-05-05 21:37:48)

Verification of Die Hard Trilogy, with the French box (and the French movie titles on the cover).
It matches the one already and redump and confirms the comment on the Saturn PAL missing discs page that there is no difference

Die Hard Trilogy : https://mega.nz/#F!hFo3EYJD!Wa6KyRMlV0041cWqgotAEA

Title: Die Hard Trilogy
Disc Number / Letter: 
Disc Title: 
System: Sega Saturn
Media Type: CD-ROM
Category: Games
Region: France
Languages: Klingon (CHANGE THIS)
Disc Serial: T-16103H    670-9450-50
Build Date: 19961219
Ringcode Information:
    Mastering Code (laser branded/etched): T-16103HP-01364    A    12345
    Mastering SID Code: 
    Data-Side Mould SID Code: 
    Label-Side Mould SID Code:
    Additional Mould: 
    Toolstamp or Mastering Code (engraved/stamped):
Barcode: 5 030931 010033
Error Count: 0
Comments: 
Contents:
Version: V1.000
Edition/Release: Original
Header:

0000 : 53 45 47 41 20 53 45 47  41 53 41 54 55 52 4E 20   SEGA SEGASATURN 
0010 : 53 45 47 41 20 54 50 20  54 2D 31 36 31 20 20 20   SEGA TP T-161   
0020 : 54 2D 31 36 31 30 33 48  20 20 56 31 2E 30 30 30   T-16103H  V1.000
0030 : 31 39 39 36 31 32 31 39  43 44 2D 31 2F 31 20 20   19961219CD-1/1  
0040 : 45 41 4C 20 20 20 20 20  20 20 20 20 20 20 20 20   EAL             
0050 : 4A 47 4D 53 41 45 20 20  20 20 20 20 20 20 20 20   JGMSAE          
0060 : 44 69 65 20 48 61 72 64  20 54 72 69 6C 6F 67 79   Die Hard Trilogy
0070 : 20 20 20 20 20 20 20 20  20 20 20 20 20 20 20 20                   
0080 : 20 20 20 20 20 20 20 20  20 20 20 20 20 20 20 20                   
0090 : 20 20 20 20 20 20 20 20  20 20 20 20 20 20 20 20                   
00A0 : 20 20 20 20 20 20 20 20  20 20 20 20 20 20 20 20                   
00B0 : 20 20 20 20 20 20 20 20  20 20 20 20 20 20 20 20                   
00C0 : 20 20 20 20 20 20 20 20  20 20 20 20 20 20 20 20                   
00D0 : 00 00 00 00 00 00 00 00  00 00 00 00 00 00 00 00   ................
00E0 : 00 00 18 00 00 00 00 00  00 00 00 00 00 00 00 00   ................
00F0 : 06 00 40 00 00 00 00 00  00 00 00 00 00 00 00 00   ..@.............

Primary Volume Descriptor (PVD):

0320 : 20 20 20 20 20 20 20 20  20 20 20 20 20 31 39 39                199
0330 : 36 31 32 31 39 31 32 35  32 33 30 30 30 14 31 39   6121912523000.19
0340 : 39 36 31 32 31 39 31 32  35 32 33 30 30 30 14 30   96121912523000.0
0350 : 30 30 30 30 30 30 30 30  30 30 30 30 30 30 30 00   000000000000000.
0360 : 30 30 30 30 30 30 30 30  30 30 30 30 30 30 30 30   0000000000000000
0370 : 00 01 00 00 00 00 00 00  00 00 00 00 00 00 00 00   ................

DAT:

<rom name="DIE_HARD_TRILOGY (Track 01).bin" size="96304992" crc="cda251e2" md5="6ab3a8ae3e433a3e7271c4574f4ed043" sha1="622f94670610291d3095b97a6bffb2d899594d03" />
<rom name="DIE_HARD_TRILOGY (Track 02).bin" size="21520800" crc="25d7c9d2" md5="2a57711c6a71220156969313b258d65b" sha1="ec5b54c157fe31fc2a5ab4d156d36f0454f501d6" />
<rom name="DIE_HARD_TRILOGY (Track 03).bin" size="21577248" crc="426f29f2" md5="e8228920fe13b1e27a32f27506a1733a" sha1="275b927cb105455dbddc911802e488dba9f93a9f" />
<rom name="DIE_HARD_TRILOGY (Track 04).bin" size="22579200" crc="d9f3c8e4" md5="1510ae1a7bc94e63c6935cf278df9f81" sha1="070e39fac5c87ed8025d46bcbdf592e11549d990" />
<rom name="DIE_HARD_TRILOGY (Track 05).bin" size="21683088" crc="5bb04e86" md5="0d4717a532993fe2a60fee9000c91fd7" sha1="703d2a059464b1fdf13a0afb54d3ac058ac348b1" />
<rom name="DIE_HARD_TRILOGY (Track 06).bin" size="21586656" crc="359ed1dd" md5="4101841e3d363e4814bb0347bdb332e0" sha1="b12ef67178c3f007575c35658a68b9cf88d2bcf2" />
<rom name="DIE_HARD_TRILOGY (Track 07).bin" size="21977088" crc="c6e2d890" md5="0b62f0bb69aef1f75c999479e6e2c2e5" sha1="c65b22d3c4cb077a0c279d465352ad72183f1998" />
<rom name="DIE_HARD_TRILOGY (Track 08).bin" size="22148784" crc="6cea7068" md5="f50e4217805f6e308db7119aacc3a6b7" sha1="b6401f0ded5712bd744c051df5f9c060ea504cdd" />
<rom name="DIE_HARD_TRILOGY (Track 09).bin" size="21864192" crc="81b002c2" md5="8de845368bbabfc28a669938d3a753c2" sha1="b27a6e6dd79d93704343f7d9ea7ecbe2792d45e4" />
<rom name="DIE_HARD_TRILOGY (Track 10).bin" size="22075872" crc="d63d8a68" md5="e094ea7230da6bf302764be402672e6b" sha1="94b178f46b043f6bf8cd87ecf363641e79a9c340" />
<rom name="DIE_HARD_TRILOGY (Track 11).bin" size="21640752" crc="b16c0098" md5="1541a524567e2870b4729500e927b14c" sha1="522c7b4001b9e9ce881368634552ec42e6658c26" />
<rom name="DIE_HARD_TRILOGY (Track 12).bin" size="22647408" crc="0f3f739b" md5="c99ccdae96e9a1db8cfb87267b513402" sha1="303420e61d7babf131fc207a5c15357375d38957" />
<rom name="DIE_HARD_TRILOGY (Track 13).bin" size="22017072" crc="9098c21c" md5="7515da71da8c99a2ae771519fef1d812" sha1="0f11b078447752a2a6ea16bb2605c1f51d4e6c62" />
<rom name="DIE_HARD_TRILOGY (Track 14).bin" size="24185616" crc="7ccf639a" md5="1556b9f83831886344566eb727088627" sha1="6b338aea2753155d600fb64e2c8c4e57450506b2" />
<rom name="DIE_HARD_TRILOGY (Track 15).bin" size="24517248" crc="10d9e09d" md5="372b3e25713624dc5dbb31ea0b56f7d2" sha1="8b4880f229536f91904a228233fc289e2086c693" />
<rom name="DIE_HARD_TRILOGY (Track 16).bin" size="23976288" crc="0136095b" md5="d17a929808a58591dc0e876d2cb0a3ad" sha1="6abe9ffa201712f19c4f92be18baf1f40dd8f2c3" />
<rom name="DIE_HARD_TRILOGY (Track 17).bin" size="32462304" crc="3e4f4b96" md5="aa188200aad0dbfb4146c5fb218c66f8" sha1="969e4aeb83dbcf041f182f684816006cd831b359" />
<rom name="DIE_HARD_TRILOGY (Track 18).bin" size="33306672" crc="91053c74" md5="6e7e5a18b83904c109be7c7bab076b70" sha1="4ad26a8769f09e3d0f5f8ffe7622b351a71780df" />
<rom name="DIE_HARD_TRILOGY (Track 19).bin" size="33532464" crc="afdbc595" md5="1064a7c83a4696cce7a869b079987366" sha1="68629a9abe1fc524dc3589a8496ceb5cfb7d7794" />
<rom name="DIE_HARD_TRILOGY (Track 20).bin" size="5451936" crc="34f03697" md5="c4715c9f1b849320a031bf3f58411dfc" sha1="44247ee21875531272d72d367ab155c87ced14ae" />
<rom name="DIE_HARD_TRILOGY (Track 21).bin" size="5451936" crc="34f03697" md5="c4715c9f1b849320a031bf3f58411dfc" sha1="44247ee21875531272d72d367ab155c87ced14ae" />
<rom name="DIE_HARD_TRILOGY (Track 22).bin" size="1058400" crc="562f7bf5" md5="324bb215c94a3a099bf2dcc950b8e1a3" sha1="c2bd9659cb7b33f40d962cad21fdcd1395db3611" />
<rom name="DIE_HARD_TRILOGY (Track 23).bin" size="1058400" crc="ac579cfc" md5="692c964c3b6a89f2e6439214f503705c" sha1="708ea0167a26fb43415bd46c8b5571c7a4c6c62e" />
<rom name="DIE_HARD_TRILOGY (Track 24).bin" size="1117200" crc="e032392f" md5="df24d72891cb2541f2e1b44bb00fd87f" sha1="c665df7392fd53a479b09dd536a1dd630588acfc" />
<rom name="DIE_HARD_TRILOGY (Track 25).bin" size="1058400" crc="7020b693" md5="26b8a0898755e74226549d2afda40a59" sha1="3cb9758747b01216c3ca905b690aa5532c162252" />
<rom name="DIE_HARD_TRILOGY (Track 26).bin" size="1058400" crc="c0bf5d7d" md5="f14d99d9173cef6dde1393765ab37dcd" sha1="5c92ab2e98ed0bf77498ca03fa874d944b9916b0" />
<rom name="DIE_HARD_TRILOGY (Track 27).bin" size="1058400" crc="55cb8ace" md5="229913c4cbf5bd8cd7b91ba6e5b0eb28" sha1="57021cea152052cbaef806eff211570224788073" />

Cuesheet:

FILE "DIE_HARD_TRILOGY (Track 01).bin" BINARY
  TRACK 01 MODE1/2352
    INDEX 01 00:00:00
FILE "DIE_HARD_TRILOGY (Track 02).bin" BINARY
  TRACK 02 AUDIO
    INDEX 00 00:00:00
    INDEX 01 00:02:00
FILE "DIE_HARD_TRILOGY (Track 03).bin" BINARY
  TRACK 03 AUDIO
    INDEX 00 00:00:00
    INDEX 01 00:02:00
FILE "DIE_HARD_TRILOGY (Track 04).bin" BINARY
  TRACK 04 AUDIO
    INDEX 00 00:00:00
    INDEX 01 00:02:00
FILE "DIE_HARD_TRILOGY (Track 05).bin" BINARY
  TRACK 05 AUDIO
    INDEX 00 00:00:00
    INDEX 01 00:02:00
FILE "DIE_HARD_TRILOGY (Track 06).bin" BINARY
  TRACK 06 AUDIO
    INDEX 00 00:00:00
    INDEX 01 00:02:00
FILE "DIE_HARD_TRILOGY (Track 07).bin" BINARY
  TRACK 07 AUDIO
    INDEX 00 00:00:00
    INDEX 01 00:02:00
FILE "DIE_HARD_TRILOGY (Track 08).bin" BINARY
  TRACK 08 AUDIO
    INDEX 00 00:00:00
    INDEX 01 00:02:00
FILE "DIE_HARD_TRILOGY (Track 09).bin" BINARY
  TRACK 09 AUDIO
    INDEX 00 00:00:00
    INDEX 01 00:02:00
FILE "DIE_HARD_TRILOGY (Track 10).bin" BINARY
  TRACK 10 AUDIO
    INDEX 00 00:00:00
    INDEX 01 00:02:00
FILE "DIE_HARD_TRILOGY (Track 11).bin" BINARY
  TRACK 11 AUDIO
    INDEX 00 00:00:00
    INDEX 01 00:02:00
FILE "DIE_HARD_TRILOGY (Track 12).bin" BINARY
  TRACK 12 AUDIO
    INDEX 00 00:00:00
    INDEX 01 00:02:00
FILE "DIE_HARD_TRILOGY (Track 13).bin" BINARY
  TRACK 13 AUDIO
    INDEX 00 00:00:00
    INDEX 01 00:02:00
FILE "DIE_HARD_TRILOGY (Track 14).bin" BINARY
  TRACK 14 AUDIO
    INDEX 00 00:00:00
    INDEX 01 00:02:00
FILE "DIE_HARD_TRILOGY (Track 15).bin" BINARY
  TRACK 15 AUDIO
    INDEX 00 00:00:00
    INDEX 01 00:02:00
FILE "DIE_HARD_TRILOGY (Track 16).bin" BINARY
  TRACK 16 AUDIO
    INDEX 00 00:00:00
    INDEX 01 00:02:00
FILE "DIE_HARD_TRILOGY (Track 17).bin" BINARY
  TRACK 17 AUDIO
    INDEX 00 00:00:00
    INDEX 01 00:02:00
FILE "DIE_HARD_TRILOGY (Track 18).bin" BINARY
  TRACK 18 AUDIO
    INDEX 00 00:00:00
    INDEX 01 00:02:00
FILE "DIE_HARD_TRILOGY (Track 19).bin" BINARY
  TRACK 19 AUDIO
    INDEX 00 00:00:00
    INDEX 01 00:02:00
FILE "DIE_HARD_TRILOGY (Track 20).bin" BINARY
  TRACK 20 AUDIO
    INDEX 00 00:00:00
    INDEX 01 00:02:00
FILE "DIE_HARD_TRILOGY (Track 21).bin" BINARY
  TRACK 21 AUDIO
    INDEX 00 00:00:00
    INDEX 01 00:02:00
FILE "DIE_HARD_TRILOGY (Track 22).bin" BINARY
  TRACK 22 AUDIO
    INDEX 00 00:00:00
    INDEX 01 00:02:00
FILE "DIE_HARD_TRILOGY (Track 23).bin" BINARY
  TRACK 23 AUDIO
    INDEX 00 00:00:00
    INDEX 01 00:02:00
FILE "DIE_HARD_TRILOGY (Track 24).bin" BINARY
  TRACK 24 AUDIO
    INDEX 00 00:00:00
    INDEX 01 00:02:00
FILE "DIE_HARD_TRILOGY (Track 25).bin" BINARY
  TRACK 25 AUDIO
    INDEX 00 00:00:00
    INDEX 01 00:02:00
FILE "DIE_HARD_TRILOGY (Track 26).bin" BINARY
  TRACK 26 AUDIO
    INDEX 00 00:00:00
    INDEX 01 00:02:00
FILE "DIE_HARD_TRILOGY (Track 27).bin" BINARY
  TRACK 27 AUDIO
    INDEX 00 00:00:00
    INDEX 01 00:02:00

Write Offset: 18