Credit to Artemio if possible

Link:
https://drive.google.com/open?id=1Mr5_K … UQAzNDpBFO


Matches:
http://redump.org/disc/45506/


Title: Snatcher
Disc Number / Letter: (OPTIONAL)
Disc Title: Snatcher
System: Sega CD / Mega CD
Media Type: CD-ROM
Category: Games
Region: EU
Languages: English
Disc Serial: (REQUIRED, IF EXISTS)
Ringcode Information:
    Mastering Ring: T95035-E12<tab>1
    Mastering SID Code: IFPI L274
    Mould SID Code: IFPI 450C
    Additional Mould: (REQUIRED, IF EXISTS)
    Toolstamp or Mastering Code: (REQUIRED, IF EXISTS)
Barcode: 4 988602 623994
Error Count: 0
Comments: (OPTIONAL)
Contents: (OPTIONAL)
Version: (REQUIRED, IF EXISTS)
Edition/Release: Original (VERIFY THIS)
Primary Volume Descriptor (PVD):

0320 : 20 20 20 20 20 20 20 20  20 20 20 20 20 31 39 39                199
0330 : 34 31 30 31 32 30 30 30  30 30 30 30 30 00 31 39   4101200000000.19
0340 : 39 34 31 30 31 32 31 30  33 30 33 34 30 30 00 30   94101210303400.0
0350 : 30 30 30 30 30 30 30 30  30 30 30 30 30 30 30 00   000000000000000.
0360 : 31 39 39 34 31 30 31 32  30 30 30 30 30 30 30 30   1994101200000000
0370 : 00 01 00 00 00 00 00 00  00 00 00 00 00 00 00 00   ................

Cuesheet:

FILE "SNATCHER-Euro (Track 01).bin" BINARY
  TRACK 01 MODE1/2352
    INDEX 01 00:00:00
FILE "SNATCHER-Euro (Track 02).bin" BINARY
  TRACK 02 AUDIO
    INDEX 00 00:00:00
    INDEX 01 00:02:00
FILE "SNATCHER-Euro (Track 03).bin" BINARY
  TRACK 03 AUDIO
    INDEX 00 00:00:00
    INDEX 01 00:02:00
FILE "SNATCHER-Euro (Track 04).bin" BINARY
  TRACK 04 AUDIO
    INDEX 00 00:00:00
    INDEX 01 00:02:00
FILE "SNATCHER-Euro (Track 05).bin" BINARY
  TRACK 05 AUDIO
    INDEX 00 00:00:00
    INDEX 01 00:02:00
FILE "SNATCHER-Euro (Track 06).bin" BINARY
  TRACK 06 AUDIO
    INDEX 00 00:00:00
    INDEX 01 00:02:00
FILE "SNATCHER-Euro (Track 07).bin" BINARY
  TRACK 07 AUDIO
    INDEX 00 00:00:00
    INDEX 01 00:02:00
FILE "SNATCHER-Euro (Track 08).bin" BINARY
  TRACK 08 AUDIO
    INDEX 00 00:00:00
    INDEX 01 00:02:00
FILE "SNATCHER-Euro (Track 09).bin" BINARY
  TRACK 09 AUDIO
    INDEX 00 00:00:00
    INDEX 01 00:02:00
FILE "SNATCHER-Euro (Track 10).bin" BINARY
  TRACK 10 AUDIO
    INDEX 00 00:00:00
    INDEX 01 00:02:00
FILE "SNATCHER-Euro (Track 11).bin" BINARY
  TRACK 11 AUDIO
    INDEX 00 00:00:00
    INDEX 01 00:02:00
FILE "SNATCHER-Euro (Track 12).bin" BINARY
  TRACK 12 AUDIO
    INDEX 00 00:00:00
    INDEX 01 00:02:00
FILE "SNATCHER-Euro (Track 13).bin" BINARY
  TRACK 13 AUDIO
    INDEX 00 00:00:00
    INDEX 01 00:02:00
FILE "SNATCHER-Euro (Track 14).bin" BINARY
  TRACK 14 AUDIO
    INDEX 00 00:00:00
    INDEX 01 00:02:00
FILE "SNATCHER-Euro (Track 15).bin" BINARY
  TRACK 15 AUDIO
    INDEX 00 00:00:00
    INDEX 01 00:02:00
FILE "SNATCHER-Euro (Track 16).bin" BINARY
  TRACK 16 AUDIO
    INDEX 00 00:00:00
    INDEX 01 00:02:00
FILE "SNATCHER-Euro (Track 17).bin" BINARY
  TRACK 17 AUDIO
    INDEX 00 00:00:00
    INDEX 01 00:02:00
FILE "SNATCHER-Euro (Track 18).bin" BINARY
  TRACK 18 AUDIO
    INDEX 00 00:00:00
    INDEX 01 00:02:00
FILE "SNATCHER-Euro (Track 19).bin" BINARY
  TRACK 19 AUDIO
    INDEX 00 00:00:00
    INDEX 01 00:02:00
FILE "SNATCHER-Euro (Track 20).bin" BINARY
  TRACK 20 AUDIO
    INDEX 00 00:00:00
    INDEX 01 00:02:00
FILE "SNATCHER-Euro (Track 21).bin" BINARY
  TRACK 21 AUDIO
    INDEX 00 00:00:00
    INDEX 01 00:02:00

Write Offset: 2

DAT:

<rom name="SNATCHER-Euro (Track 01).bin" size="131744928" crc="9f041b59" md5="93560fef5cf46b57be3022e6f4f7b096" sha1="cd1c35713c57936e9a268df3fa3a1e93b395db0a" />
<rom name="SNATCHER-Euro (Track 02).bin" size="1164240" crc="d00f54c4" md5="cc325c2484ff41e7d4b0e9060894146b" sha1="ac73d5629875586db0a5d776a13beef377d9a854" />
<rom name="SNATCHER-Euro (Track 03).bin" size="23802240" crc="40a49fba" md5="786b30a8b252a61fc91bbabcf4685edb" sha1="43f02ad9d970492426732bfede4c76a0cbf202a2" />
<rom name="SNATCHER-Euro (Track 04).bin" size="48345360" crc="e6043e39" md5="6230808a2c1f340f8415cdc49326e155" sha1="ce50b9dad31f960905c5c8d105051b65d45bcada" />
<rom name="SNATCHER-Euro (Track 05).bin" size="3716160" crc="c32e9ebe" md5="80ef48d3a8cd6d6d8cf7db175656571a" sha1="9e1374fc524759ba8ceccebad4047e136852fcd4" />
<rom name="SNATCHER-Euro (Track 06).bin" size="12740784" crc="a7705e57" md5="03be927bbc866c3158a5a7af03634505" sha1="0310fe11504dc05388a5e025ae1ca0af4fe0e0d6" />
<rom name="SNATCHER-Euro (Track 07).bin" size="29404704" crc="fccd71c5" md5="e4d03194b32eca0edb65b92f1f5299a7" sha1="8a124916025294432adee4dd75baf9082d5d7f7b" />
<rom name="SNATCHER-Euro (Track 08).bin" size="37843680" crc="2b5cf3d5" md5="749bea144eb88ee76cd19fc93a89adbb" sha1="4d7411ec40205baf5c294f7e16813de8eb493f4b" />
<rom name="SNATCHER-Euro (Track 09).bin" size="15412656" crc="afe3dcbf" md5="091c2fe24eee2cc5969a5fd0a4775c10" sha1="697295e985cefec143a2981734d3f93066f16dc7" />
<rom name="SNATCHER-Euro (Track 10).bin" size="22769712" crc="9832f63e" md5="f275214198e76b425f76b825fb870dc5" sha1="a27713205d8fac230e54c51cfd773762eb4b5d23" />
<rom name="SNATCHER-Euro (Track 11).bin" size="19164096" crc="4150d5c5" md5="7cac1aca396c2b7891d4f86652c1b51e" sha1="00e8f43bf89470b7cbd596c93ef57dcb198d6223" />
<rom name="SNATCHER-Euro (Track 12).bin" size="47576256" crc="d6bb6cba" md5="533669bf6b1b22bce349e31d1328be18" sha1="17664b3ab873cb71c158f9df4d28b77fc6620138" />
<rom name="SNATCHER-Euro (Track 13).bin" size="20278944" crc="477d9244" md5="f30b732535691c71494c4ab54c375cd3" sha1="a8d0eb4929d5560e631500734e0b309dbc2d5bd9" />
<rom name="SNATCHER-Euro (Track 14).bin" size="14445984" crc="749b2596" md5="1af1918aa779911eca30a92ca28bdc05" sha1="ee02d2d226d1a668b11f9b73daaf713212e0492b" />
<rom name="SNATCHER-Euro (Track 15).bin" size="13778016" crc="a8562533" md5="48c5cfedac8956afde3e5fb4965deeb2" sha1="644ec8b9ed2e35f00fc40bda24f39f442f72a4e2" />
<rom name="SNATCHER-Euro (Track 16).bin" size="3027024" crc="71af88c7" md5="774de00f0effe67e1d2079efbdfc13b5" sha1="1bc854049cbd19f5c5c91eff71731c8a5f844f29" />
<rom name="SNATCHER-Euro (Track 17).bin" size="17461248" crc="562edc62" md5="44e8f8cf01786be03858961bdb103c73" sha1="49802ef9c3a3e18dd8e9853e45c8b13069f0a538" />
<rom name="SNATCHER-Euro (Track 18).bin" size="8314320" crc="f0a265b6" md5="6a83142465025eb01057686d903893ad" sha1="f0c798e93f582e18209d47631f2e84da2bf008cf" />
<rom name="SNATCHER-Euro (Track 19).bin" size="74551344" crc="97dca941" md5="4dc8d5aa81c4a76a951cc92d2e845bfd" sha1="768066f720bd2a57a060097b4bc8c9a19c5d2dab" />
<rom name="SNATCHER-Euro (Track 20).bin" size="5844720" crc="b5341397" md5="006364d3667b62b2371a85a2dca67ed5" sha1="5d9fa0f6b1f5e3611df29159cb9d7ce132ae6fb1" />
<rom name="SNATCHER-Euro (Track 21).bin" size="73805760" crc="cde0a9e4" md5="f22950f393f8d0829a556ff5685a4ce9" sha1="6144d301e257da0709dddaf7df9ad510006a015e" />