Title: deathsmiles IIX original sound track
Disc Number / Letter: (OPTIONAL)
Disc Title: (OPTIONAL)
System: Audio CD
Media Type: CD-ROM
Category: Games
Region: Japan
Languages: Japanese
Disc Serial: CVST-0016
Ringcode Information:
    Mastering Code (laser branded/etched): X16-85422<tab>(LD261G)
    Mastering SID Code: IFPILB25
    Data-Side Mould SID Code: IFPI 4K13
    Label-Side Mould SID Code: (REQUIRED, IF EXISTS)
    Additional Mould: (REQUIRED, IF EXISTS)
    Toolstamp or Mastering Code (engraved/stamped): (REQUIRED, IF EXISTS)
Barcode: (OPTIONAL)
Error Count: Error retrieving error count
Comments: Published by Cave
Contents: https://vgmdb.net/album/18180
Version: (REQUIRED, IF EXISTS)
Edition/Release: Bundled within the japanese Special Edition of the game on Xbox360
Primary Volume Descriptor (PVD):

Disc has no PVD
DAT:

<rom name="Audio CD (Track 01).bin" size="15546720" crc="10f7b044" md5="9bc2280e3ff14056dec016b004d4e020" sha1="8b666abf59a0881b3694f1aa75a4c341f2885ee7" />
<rom name="Audio CD (Track 02).bin" size="28692048" crc="4393efd1" md5="b877e42af31dcd229511d2b9a0f6fa58" sha1="775335b6ef1b90e8cfe0aef17601d7bcf0969ebd" />
<rom name="Audio CD (Track 03).bin" size="33734736" crc="27f1d198" md5="55f0a18af7a54f64d523b9c7247e87a3" sha1="f1bc52c611be8a6ffa929690493a4138a5c7c826" />
<rom name="Audio CD (Track 04).bin" size="9504432" crc="d8a57096" md5="960b35adf8c41a8da64a057e67b74d3d" sha1="ad247526c8f0d1b62c2b0a8f6cde9382a2ee937b" />
<rom name="Audio CD (Track 05).bin" size="27179712" crc="089e8bf9" md5="0810bf8208cec7f90e7076c05925ef5a" sha1="573b89f2c9142e48710ab9336a87a405dc38103a" />
<rom name="Audio CD (Track 06).bin" size="34494432" crc="513c060a" md5="6ae9a54539cb83b16584fb156839f264" sha1="0cadbbfb405fbb5ace4f425be5272df1e3733fc9" />
<rom name="Audio CD (Track 07).bin" size="37123968" crc="e7fd3f19" md5="65192f241399d10deb490d6b7f5baa37" sha1="86ee7034abb273bdf9347e774a129ec91fb5d9bd" />
<rom name="Audio CD (Track 08).bin" size="38772720" crc="6ee59f0c" md5="a2ebfe658ce1302e2f8f4e11744aeb37" sha1="fa0253b4adb64c3f2137dc1e727dad0080bfe716" />
<rom name="Audio CD (Track 09).bin" size="23611728" crc="a1911495" md5="fc553ff0b973eadbca8c53c44e7b845c" sha1="b25fd1fb64899855d1d150c8edd6dff402fd620b" />
<rom name="Audio CD (Track 10).bin" size="51377088" crc="4b2d16db" md5="c97b3089935c625eb791ed361b8c1916" sha1="0c45414ba1d03f1cdaef5dda8a2c24cb64567ed1" />
<rom name="Audio CD (Track 11).bin" size="25415712" crc="c5c6f483" md5="cd5eed54e98f07e6109d4d3dfd3ce0e6" sha1="e12f10f6406b8a1671e2d5438167ca63c71738a2" />
<rom name="Audio CD (Track 12).bin" size="36646512" crc="66692aa4" md5="a004e9d899c5335293b86946e970adbc" sha1="369ef6816639f25f40a2a068763acae44052e818" />
<rom name="Audio CD (Track 13).bin" size="37074576" crc="9a1eb536" md5="377ff08477b5eceb818987f3c93f83dc" sha1="0c71f5e48468bccc4b1ca0240208657f6895c288" />
<rom name="Audio CD (Track 14).bin" size="38956176" crc="aa7fd2b0" md5="8c969edaa0e1cf1cb74c032a0fb2d12b" sha1="5c95636823b186bb081508b10f6f0c3699df52e7" />
<rom name="Audio CD (Track 15).bin" size="22191120" crc="2e6317fc" md5="c0e0334b855b7ae65763a5e36f583048" sha1="a32c6d970c32ff190bcd80b33a4c769bb38440ef" />
<rom name="Audio CD (Track 16).bin" size="39012624" crc="8c86d0ab" md5="35cdbaec059ba7e543983076bab89b41" sha1="d66b589b472071dd6356eb836ff59f9878fe8b2b" />

Cuesheet:

FILE "Audio CD (Track 01).bin" BINARY
  TRACK 01 AUDIO
    INDEX 01 00:00:00
FILE "Audio CD (Track 02).bin" BINARY
  TRACK 02 AUDIO
    INDEX 00 00:00:00
    INDEX 01 00:02:00
FILE "Audio CD (Track 03).bin" BINARY
  TRACK 03 AUDIO
    INDEX 00 00:00:00
    INDEX 01 00:02:00
FILE "Audio CD (Track 04).bin" BINARY
  TRACK 04 AUDIO
    INDEX 00 00:00:00
    INDEX 01 00:02:00
FILE "Audio CD (Track 05).bin" BINARY
  TRACK 05 AUDIO
    INDEX 00 00:00:00
    INDEX 01 00:02:00
FILE "Audio CD (Track 06).bin" BINARY
  TRACK 06 AUDIO
    INDEX 00 00:00:00
    INDEX 01 00:02:00
FILE "Audio CD (Track 07).bin" BINARY
  TRACK 07 AUDIO
    INDEX 00 00:00:00
    INDEX 01 00:02:00
FILE "Audio CD (Track 08).bin" BINARY
  TRACK 08 AUDIO
    INDEX 00 00:00:00
    INDEX 01 00:02:00
FILE "Audio CD (Track 09).bin" BINARY
  TRACK 09 AUDIO
    INDEX 00 00:00:00
    INDEX 01 00:02:00
FILE "Audio CD (Track 10).bin" BINARY
  TRACK 10 AUDIO
    INDEX 00 00:00:00
    INDEX 01 00:02:00
FILE "Audio CD (Track 11).bin" BINARY
  TRACK 11 AUDIO
    INDEX 00 00:00:00
    INDEX 01 00:02:00
FILE "Audio CD (Track 12).bin" BINARY
  TRACK 12 AUDIO
    INDEX 00 00:00:00
    INDEX 01 00:02:00
FILE "Audio CD (Track 13).bin" BINARY
  TRACK 13 AUDIO
    INDEX 00 00:00:00
    INDEX 01 00:04:00
FILE "Audio CD (Track 14).bin" BINARY
  TRACK 14 AUDIO
    INDEX 00 00:00:00
    INDEX 01 00:03:00
FILE "Audio CD (Track 15).bin" BINARY
  TRACK 15 AUDIO
    INDEX 00 00:00:00
    INDEX 01 00:03:00
FILE "Audio CD (Track 16).bin" BINARY
  TRACK 16 AUDIO
    INDEX 00 00:00:00
    INDEX 01 00:04:00

Write Offset: 0

NOTE:
https://vgmdb.net/album/18180

https://www.dropbox.com/s/pm8ul3ic04u6v … CD.7z?dl=0