Title: A Vampyre Story Original Soundtrack
Disc Number / Letter: (OPTIONAL)
Disc Title: (OPTIONAL)
System: Audio CD
Media Type: CD-ROM
Category: Games
Region: Germany
Languages: English
Disc Serial: (REQUIRED, IF EXISTS)
Ringcode Information:
    Mastering Code (laser branded/etched): FPG0041
    Mastering SID Code: IFPI LL21
    Data-Side Mould SID Code: IFPI06C1
    Label-Side Mould SID Code: (REQUIRED, IF EXISTS)
    Additional Mould: (REQUIRED, IF EXISTS)
    Toolstamp or Mastering Code (engraved/stamped): (REQUIRED, IF EXISTS)
Barcode: (OPTIONAL)
Error Count: Error retrieving error count
Comments: Published by Crimson Cow, Composed by Pedro Macedo Camacho
Contents: https://vgmdb.net/album/11544
Version: (REQUIRED, IF EXISTS)
Edition/Release: Bundled within the german Special Edition of the game on PC
Primary Volume Descriptor (PVD):

Disc has no PVD
DAT:

<rom name="Audio CD (Track 01).bin" size="23160144" crc="386f2258" md5="e6503c99ebc7248343b134e92c4d0612" sha1="ad703a83fa8b806b3af3822eb433acad91778c3a" />
<rom name="Audio CD (Track 02).bin" size="22054704" crc="926446eb" md5="fbb3a44ea822460859f4f66a393372cd" sha1="35d69bf75d570f79344b651105acfce8b735b401" />
<rom name="Audio CD (Track 03).bin" size="31493280" crc="a5634ed4" md5="cac88f3da1b398dae982a31a86a1f9d5" sha1="0a5254a09c3f0e2e05d58ec2ccbe4260cd24a5b7" />
<rom name="Audio CD (Track 04).bin" size="17393040" crc="7d0d895f" md5="bd3f592a367ac1b1daacf900009c5770" sha1="91dd335a2eed3e87bc8a14bffdbfc5aa548917db" />
<rom name="Audio CD (Track 05).bin" size="18105696" crc="a6685fb9" md5="89be10479bf5c31ed1ac08ce1c429553" sha1="45b1ae17589e1d10fdf0cac8148b5d77f64d7fc0" />
<rom name="Audio CD (Track 06).bin" size="19867344" crc="6ef99e88" md5="c90139465cf83e8ab7d1e0109a1a830e" sha1="04799e8deae44386ca6f5a262649253b6430dc66" />
<rom name="Audio CD (Track 07).bin" size="15088080" crc="0e93a118" md5="a240900b66b40a2d803be6f89f640d1c" sha1="8b82282b54287e560ebe2c9d8588dc79dbd88da8" />
<rom name="Audio CD (Track 08).bin" size="29863344" crc="c67548a8" md5="f107cb332ab1202c836e5d855b4c9693" sha1="bcee77c1614398e745917cbbdebfbd70d3bad7f1" />
<rom name="Audio CD (Track 09).bin" size="15751344" crc="de37e4af" md5="9a12abf9719ec76510e5a6490e3a9e9b" sha1="6e864f3f0aeadfa7c080cd703333eb48a20ca936" />
<rom name="Audio CD (Track 10).bin" size="19632144" crc="7c684add" md5="55d5a2a75f8b4be4cb531b1394adadbf" sha1="eea72bb3433fab159284dcdf3a2713c2fa244282" />
<rom name="Audio CD (Track 11).bin" size="24557232" crc="5d8e91a5" md5="44c9a6d62f941d63ae6e6e4f9a557a91" sha1="0b6e741b1ec71842545b88f46ae74cf8343c73a8" />
<rom name="Audio CD (Track 12).bin" size="38175312" crc="a77b1a5f" md5="3fe30d5c6571866d782c99187cdb774a" sha1="4f4e08da1622ebdaca500ebe0bf47eac19c18014" />
<rom name="Audio CD (Track 13).bin" size="17371872" crc="26704da8" md5="3207560a900991a6259e27ce48d9fb86" sha1="e593cc87f71fb0e7e388ce4612050287ba4cd3c0" />
<rom name="Audio CD (Track 14).bin" size="15391488" crc="cf8110d6" md5="8c800052c23c832496687bcf570e8c8f" sha1="7f30a2a24ebde523c5d531005dd8436a5807dcb9" />
<rom name="Audio CD (Track 15).bin" size="22068816" crc="51b2f53b" md5="04acd718d5af0f2f6d475c4497e88331" sha1="8ce7d0ab4fdd7ee62a86cec273a45bf71a431cf1" />
<rom name="Audio CD (Track 16).bin" size="18131568" crc="df54bf6d" md5="619aa63ddcb5bfa6af544f345cc55a6d" sha1="164044c8c1f440277e7a23ca03c6f1489ba08192" />
<rom name="Audio CD (Track 17).bin" size="19733280" crc="afd8e4bd" md5="3ed3481bc98dbc519e9c01a6561a10ed" sha1="942b10e9077e0294896f5fac1e43ac395882aba4" />
<rom name="Audio CD (Track 18).bin" size="12395040" crc="44fa78c4" md5="4eb96c5e7753a17dc1f62c126f744ea1" sha1="f043d7e5a9e79418ff6e050ad63f3bd0fb284883" />
<rom name="Audio CD (Track 19).bin" size="15892464" crc="ad6b3769" md5="d810b29d63ef83593b4111c8ccb7c4af" sha1="3874b4ca374223b8b86cb39a921e22c6b1c99463" />
<rom name="Audio CD (Track 20).bin" size="17456544" crc="2e6b9f95" md5="9d8d25bf74637caddc3209fb0722218f" sha1="653954d6b8b11f2c4a35c26a8e93a9425cdf123c" />
<rom name="Audio CD (Track 21).bin" size="12978336" crc="99881deb" md5="5f11d845b54ddc5eba19fd2d3bd92828" sha1="3f86e597371a95df8ab7e2859e2674e42faf3327" />
<rom name="Audio CD (Track 22).bin" size="18813648" crc="d7b4b055" md5="bf70f528a8d6530d2c1d86004fc813c7" sha1="a78c63add2fcce02564b95248a14ffd64d291b32" />
<rom name="Audio CD (Track 23).bin" size="18117456" crc="7fe8fcaa" md5="98b38bdbd8127696e4c43ff1c87e41fc" sha1="6ceeaf4b1f90e1fc0ddbcf73bad647593409a3e6" />
<rom name="Audio CD (Track 24).bin" size="16106496" crc="b14da952" md5="f61f34bd927b80410491aa92e504350a" sha1="b5ffc808ec856af98a0b79916b03d5b27d1393d3" />
<rom name="Audio CD (Track 25).bin" size="27245568" crc="0e85a98d" md5="ad34b6e01af704c33bd0bb3c7f17d1c5" sha1="c468b6895fbf7008926baa701885359a2f3ee9de" />
<rom name="Audio CD (Track 26).bin" size="20956320" crc="13d97ed4" md5="cdd3b41e76ea9048415a7086a0a643d7" sha1="4cf7f4e4db501b863d6f478fed4a6cf52bc73eb7" />
<rom name="Audio CD (Track 27).bin" size="20067264" crc="b5304c4d" md5="b5df1059ef4df9b3840d3ebe97a3e668" sha1="3ee27cabe3689241a961f249318b3bd2cbde21de" />
<rom name="Audio CD (Track 28).bin" size="20342448" crc="3fa2427d" md5="d6d879998772ce06f50922be4b757863" sha1="89f1b7262fe0de0f1bd4423d5aa665206ade9322" />
<rom name="Audio CD (Track 29).bin" size="25112304" crc="02b90735" md5="5d12ec8a816a1a3413f9c27363f413e7" sha1="4cdb268ef2b70b2fc6e4fb30bf538a6a41332c45" />
<rom name="Audio CD (Track 30).bin" size="19909680" crc="c471c165" md5="3776ae703ca3335f1bfe7f59a1b637a2" sha1="2e7d5ad2b973215ec8475b6ee13816b6f7398358" />
<rom name="Audio CD (Track 31).bin" size="42578256" crc="19ea3ea6" md5="f48b8f857db91f5d4f00ffc959e6a65c" sha1="6196f53ccf1f92a6b79e872f4308fb16be33cbf2" />

Cuesheet:

FILE "Audio CD (Track 01).bin" BINARY
  TRACK 01 AUDIO
    INDEX 01 00:00:00
FILE "Audio CD (Track 02).bin" BINARY
  TRACK 02 AUDIO
    INDEX 01 00:00:00
FILE "Audio CD (Track 03).bin" BINARY
  TRACK 03 AUDIO
    INDEX 01 00:00:00
FILE "Audio CD (Track 04).bin" BINARY
  TRACK 04 AUDIO
    INDEX 01 00:00:00
FILE "Audio CD (Track 05).bin" BINARY
  TRACK 05 AUDIO
    INDEX 01 00:00:00
FILE "Audio CD (Track 06).bin" BINARY
  TRACK 06 AUDIO
    INDEX 01 00:00:00
FILE "Audio CD (Track 07).bin" BINARY
  TRACK 07 AUDIO
    INDEX 01 00:00:00
FILE "Audio CD (Track 08).bin" BINARY
  TRACK 08 AUDIO
    INDEX 01 00:00:00
FILE "Audio CD (Track 09).bin" BINARY
  TRACK 09 AUDIO
    INDEX 01 00:00:00
FILE "Audio CD (Track 10).bin" BINARY
  TRACK 10 AUDIO
    INDEX 01 00:00:00
FILE "Audio CD (Track 11).bin" BINARY
  TRACK 11 AUDIO
    INDEX 01 00:00:00
FILE "Audio CD (Track 12).bin" BINARY
  TRACK 12 AUDIO
    INDEX 01 00:00:00
FILE "Audio CD (Track 13).bin" BINARY
  TRACK 13 AUDIO
    INDEX 01 00:00:00
FILE "Audio CD (Track 14).bin" BINARY
  TRACK 14 AUDIO
    INDEX 01 00:00:00
FILE "Audio CD (Track 15).bin" BINARY
  TRACK 15 AUDIO
    INDEX 01 00:00:00
FILE "Audio CD (Track 16).bin" BINARY
  TRACK 16 AUDIO
    INDEX 01 00:00:00
FILE "Audio CD (Track 17).bin" BINARY
  TRACK 17 AUDIO
    INDEX 01 00:00:00
FILE "Audio CD (Track 18).bin" BINARY
  TRACK 18 AUDIO
    INDEX 01 00:00:00
FILE "Audio CD (Track 19).bin" BINARY
  TRACK 19 AUDIO
    INDEX 01 00:00:00
FILE "Audio CD (Track 20).bin" BINARY
  TRACK 20 AUDIO
    INDEX 01 00:00:00
FILE "Audio CD (Track 21).bin" BINARY
  TRACK 21 AUDIO
    INDEX 01 00:00:00
FILE "Audio CD (Track 22).bin" BINARY
  TRACK 22 AUDIO
    INDEX 01 00:00:00
FILE "Audio CD (Track 23).bin" BINARY
  TRACK 23 AUDIO
    INDEX 01 00:00:00
FILE "Audio CD (Track 24).bin" BINARY
  TRACK 24 AUDIO
    INDEX 01 00:00:00
FILE "Audio CD (Track 25).bin" BINARY
  TRACK 25 AUDIO
    INDEX 01 00:00:00
FILE "Audio CD (Track 26).bin" BINARY
  TRACK 26 AUDIO
    INDEX 01 00:00:00
FILE "Audio CD (Track 27).bin" BINARY
  TRACK 27 AUDIO
    INDEX 01 00:00:00
FILE "Audio CD (Track 28).bin" BINARY
  TRACK 28 AUDIO
    INDEX 01 00:00:00
FILE "Audio CD (Track 29).bin" BINARY
  TRACK 29 AUDIO
    INDEX 01 00:00:00
FILE "Audio CD (Track 30).bin" BINARY
  TRACK 30 AUDIO
    INDEX 01 00:00:00
FILE "Audio CD (Track 31).bin" BINARY
  TRACK 31 AUDIO
    INDEX 01 00:00:00

Write Offset: 0

NOTE:
https://vgmdb.net/album/11544
https://www.mobygames.com/game/windows/ … /cover-art

https://www.dropbox.com/s/bogled0u2i9rw … CD.7z?dl=0